<?xml version="1.0" standalone="no"?>
<!DOCTYPE svg PUBLIC "-//W3C//DTD SVG 1.1//EN" "http://www.w3.org/Graphics/SVG/1.1/DTD/svg11.dtd" >
<svg xmlns="http://www.w3.org/2000/svg" xmlns:xlink="http://www.w3.org/1999/xlink" version="1.1">
<metadata>
Created by FontForge 20170731 at Sat Sep  3 03:34:04 2022
 By Aleksey,,,
Universidad La Salle A.C.
</metadata>
<defs>
<font id="IndivisaTextSans-Bold" horiz-adv-x="1220" >
  <font-face 
    font-family="Indivisa Text Sans"
    font-weight="600"
    font-stretch="normal"
    units-per-em="2048"
    panose-1="0 0 0 0 0 0 0 0 0 0"
    ascent="1638"
    descent="-410"
    x-height="1020"
    cap-height="1430"
    bbox="-125 -721 11129 2429"
    underline-thickness="139"
    underline-position="-595"
    unicode-range="U+0020-FB02"
  />
<missing-glyph horiz-adv-x="1392" 
d="M205 0v1532h983v-1532h-983zM365 1450l331 -598l332 598h-663zM287 1423v-1310l364 655zM743 768l363 -655v1310zM360 82h672l-336 604z" />
    <glyph glyph-name="f_f" unicode="ff" horiz-adv-x="1312" 
d="M451 0h-256v862l-150 8v95l150 30q-7 96 -7 146q0 175 112 272.5t300 97.5q150 0 279 -59q106 100 299 100q159 0 266 -63l-53 -195q-108 68 -211 68q-160 0 -160 -188q0 -38 6 -179h262l19 -26l-7 -115l-270 8v-862h-256v862h-323v-862zM440 1135q0 -11 6 -140h328
q-1 20 -3.5 80t-2.5 82q0 69 16 131q-81 51 -174 51q-170 0 -170 -204z" />
    <glyph glyph-name="f_f_i" unicode="ffi" horiz-adv-x="1775" 
d="M451 0h-256v862l-150 8v95l150 30q-7 100 -7 146q0 175 115 272.5t305 97.5q157 0 275 -59q109 100 301 100q116 0 216.5 -33.5t170.5 -91.5l-121 -157q-130 92 -256 92q-92 0 -133 -50.5t-41 -152.5q0 -91 6 -164h305l252 45l29 -28v-1012h-256v670q0 105 -8 184l-318 8
v-862h-256v862h-323v-862zM440 1135q0 -11 6 -140h328q-1 23 -3.5 81t-2.5 77q0 69 14 121q-76 47 -166 47q-85 0 -130.5 -47t-45.5 -139z" />
    <glyph glyph-name="f_f_l" unicode="ffl" horiz-adv-x="1773" 
d="M451 0h-256v862l-150 8v95l150 30q-7 100 -7 146q0 175 115 272.5t305 97.5q148 0 277 -59q112 100 317 100q91 0 189 -24l198 24l31 -28v-1524h-256v854l-334 8v-862h-256v862h-323v-862zM1020 1174q0 -38 6 -179h338v187q0 55 -4 149q-81 31 -158 31q-182 0 -182 -188z
M440 1135q0 -11 6 -140h328q-1 18 -3.5 79t-2.5 85q0 63 12 115q-73 47 -164 47q-85 0 -130.5 -47t-45.5 -139z" />
    <glyph glyph-name="f_i" unicode="fi" horiz-adv-x="1196" 
d="M451 0h-256v862l-150 8v95l150 30q-7 107 -7 158q0 191 110 295t306 104q116 0 216.5 -33.5t168.5 -91.5l-119 -157q-133 92 -258 92q-90 0 -131 -50.5t-41 -152.5q0 -91 6 -164h304l251 45l29 -28v-1012h-256v670q0 96 -6 184l-317 8v-862z" />
    <glyph glyph-name="f_l" unicode="fl" horiz-adv-x="1193" 
d="M451 0h-256v862l-150 8v95l150 30q-7 107 -7 164q0 187 114 290t321 103q90 0 188 -24l199 24l28 -28v-1524h-256v854l-331 8v-862zM440 1174q0 -38 6 -179h336v187q0 102 -4 149q-81 31 -155 31q-183 0 -183 -188z" />
    <glyph glyph-name="symbol1" unicode="&#x2f;symbol&#x31;&#x2f;" horiz-adv-x="11333" 
d="M3820 844q-52 0 -83.5 29t-31.5 77q0 71 67 131t144 60q50 0 80 -28t30 -77q0 -74 -63.5 -133t-142.5 -59zM2630 844q-54 0 -85.5 29t-31.5 77q0 71 68 131t145 60q50 0 79 -28t29 -77q0 -73 -63 -132.5t-141 -59.5zM1964 0q0 80 23 221q-33 -103 -105.5 -169t-161.5 -66
q-84 0 -129 60.5t-45 168.5q0 74 20 150t62 146t100 124.5t140 87.5t176 33q35 0 51 -2l33 149l12 209l279 14q0 -92 -29.5 -252t-65 -306.5t-65 -309t-29.5 -258.5h-266zM205 0l160 745q36 182 43 279l262 14l22 -30l-213 -1008h-274zM7174 1008l-117 -1008h-268l41 358
q7 72 68 441h-6q-64 -206 -166 -441l-156 -358h-305l-4 358q-3 249 18 441h-4q-66 -269 -121 -441l-108 -358h-224l316 1024l377 12l2 -280q4 -279 -31 -531h4q78 253 193 531l114 268l346 14zM10887 614q-16 -79 -31.5 -151t-22.5 -104.5t-13 -60.5t-7.5 -38.5t-1.5 -19.5
q0 -34 19.5 -52t54.5 -18q52 0 121 37l-18 -162q-105 -59 -234 -59q-104 0 -159.5 51.5t-55.5 152.5q0 13 1 24.5t4 31.5t6 36t10.5 53.5t14 68.5t20.5 95.5t26 121.5l-96 2l18 90l111 28l108 195l166 12l27 -30l-41 -177h203l12 -28l-35 -105zM688 0q0 157 84 532l12 209
l281 15q0 -64 -14 -183h4q55 94 128 138.5t146 44.5q69 0 108.5 -40t39.5 -106q0 -55 -54 -301q-22 -102 -29.5 -165t-7.5 -144h-268q0 115 39 307q5 28 12 63t10.5 52t6 34.5t2.5 28.5q0 50 -35 50q-46 0 -91.5 -79t-74.5 -204t-31 -252h-268zM2396 0q0 150 55 395l29 137
l12 209l281 15q0 -94 -55.5 -362.5t-55.5 -393.5h-266zM2865 741l287 15q27 -273 -10 -592h4q70 139 121.5 298t64.5 283q50 11 102 11q66 0 100 -17t34 -69q0 -95 -104.5 -302.5t-237.5 -367.5h-306q-9 470 -55 741zM3588 0q0 144 53 395l31 137l12 209l281 15
q0 -94 -55.5 -362.5t-55.5 -393.5h-266zM9658 0q0 157 84 532l13 209l280 15q0 -24 -14 -183h4q55 94 127.5 138.5t146.5 44.5q69 0 108.5 -40t39.5 -106q0 -60 -53 -301q-23 -106 -31 -168t-8 -141h-267q0 115 39 307q5 28 12 63t10.5 52t6 34.5t2.5 28.5q0 50 -35 50
q-47 0 -92 -79t-74 -203.5t-32 -252.5h-267zM4598 524q-50 29 -105 45.5t-94 16.5q-36 0 -61 -15t-25 -39t27 -43.5t65.5 -37.5t77 -40.5t65.5 -64t27 -96.5q0 -118 -108.5 -191t-261.5 -73q-69 0 -137.5 15.5t-104.5 41.5l55 190q53 -35 118 -56t110 -21q38 0 59.5 15
t21.5 38t-27 43t-65.5 38.5t-77 42t-65.5 63.5t-27 93q0 115 111.5 191t263.5 76q119 0 213 -37zM5171 756q72 0 155.5 -16.5t143.5 -49.5l-59 -262q-64 -300 -64 -428h-266q0 69 25 229q-32 -106 -106 -174.5t-165 -68.5q-84 0 -128 60.5t-44 170.5q0 74 20 149t62 145.5
t100.5 124.5t143 87t182.5 33zM9529 104q-65 -57 -150.5 -87.5t-174.5 -30.5q-133 0 -212 71t-79 209q0 125 61.5 237t174 182.5t247.5 70.5q111 0 177.5 -48t66.5 -133q0 -118 -123 -197.5t-330 -88.5v-2q0 -131 129 -131q89 0 185 57zM8061 0q0 84 19 201.5t67 330.5
l10 209l281 15q0 -56 -15 -183h5q56 94 129 138.5t145 44.5q70 0 108.5 -40t38.5 -106q0 -60 -53 -301q-22 -102 -29.5 -165t-7.5 -144h-268q0 115 39 307q31 149 31 178q0 50 -35 50q-46 0 -91.5 -79t-74.5 -204t-31 -252h-268zM7717 756q72 0 154.5 -16.5t142.5 -49.5
l-58 -262q-63 -296 -63 -428h-266q0 91 24 229q-32 -106 -105.5 -174.5t-164.5 -68.5q-84 0 -129 60.5t-45 170.5q0 93 33 186.5t94.5 173t161.5 129.5t221 50zM9196 362q95 21 148.5 70t53.5 121q0 63 -45 63q-57 0 -99 -78.5t-58 -175.5zM7530 207q48 0 97.5 88.5
t77.5 206.5q2 17 9.5 50t8.5 40q-32 16 -55 16q-46 0 -91 -55.5t-70.5 -129.5t-25.5 -134q0 -38 13 -60t36 -22zM1870 207q45 0 91.5 81t76.5 193q2 16 16 82l6 29q-29 16 -55 16q-45 0 -89 -55.5t-69.5 -129.5t-25.5 -134q0 -38 13 -60t36 -22zM4987 207q47 0 96.5 89
t75.5 206q9 44 18 90q-29 16 -55 16q-46 0 -90 -55.5t-69 -129.5t-25 -134q0 -82 49 -82z" />
    <glyph glyph-name="symbol2" unicode="&#x2f;symbol&#x32;&#x2f;" horiz-adv-x="1908" 
d="M1012 1167l106 -184l-280 -491h-211l280 491l-106 184h211zM731 1167l107 -184l-283 -491h-211l283 491l-107 184h211zM1540 246h-211l-280 491l104 185l281 -492h211zM1399 0h-211l-281 492l105 184l282 -492h211zM205 246l104 184h563l105 -184h-561l-107 -185zM344 0
l107 184h561l106 -184h-563l-104 -184zM1616 180q37 0 62.5 -26.5t25.5 -63.5t-25.5 -63.5t-62.5 -26.5t-62.5 26.5t-25.5 63.5t25.5 63.5t62.5 26.5zM1698 90q0 34 -24 58t-58 24t-58 -24t-24 -58t24 -58t58 -24t58 24t24 58zM1579 141h37q14 0 22 -4q11 -8 11 -22
q0 -10 -7 -17q-2 -3 -12 -8q14 -3 17 -18q0 -18 6 -33h-17q-1 3 -2 13t-2 14q-2 12 -5.5 16t-16.5 4h-17v-47h-14v102zM1593 96h21q10 0 14 2q6 6 6 15q0 16 -20 16h-21v-33z" />
    <glyph glyph-name="symbol3" unicode="&#x2f;symbol&#x33;&#x2f;" horiz-adv-x="1959" 
d="M1034 1307l140 -553h552l-415 -277l278 -553l-555 277l-553 -553l277 829l-553 416l692 -139zM1667 178q37 0 62.5 -26t25.5 -64q0 -37 -25.5 -62.5t-62.5 -25.5t-62.5 25.5t-25.5 62.5q0 38 25.5 64t62.5 26zM1749 88q0 35 -24 59.5t-58 24.5t-58 -24.5t-24 -59.5
q0 -34 24 -58t58 -24t58 24t24 58zM1630 139h37q17 0 23 -4q12 -6 12 -20q0 -11 -8 -19q-6 -6 -13 -6q15 -6 17 -20q5 -30 6 -33h-14q-2 4 -3 9t-2 11t-2 9q0 11 -4 14.5t-16 3.5h-18v-47h-15v102zM1645 96h20q10 0 14 2q7 7 7 13q0 18 -21 18h-20v-33z" />
    <glyph glyph-name="symbol4" unicode="&#x2f;symbol&#x34;&#x2f;" horiz-adv-x="5339" 
d="M3449 831q0 128 -23 263l258 28l31 -30v-1092h-266v831zM3869 831q0 122 -21 263l258 28l29 -30v-1092h-266v831zM874 207v-207h-655v741q0 165 -14 277l258 14l29 -28v-811zM1894 43l15 223q59 -35 142.5 -54t152.5 -19q102 0 102 73q0 26 -22.5 50.5t-59 46.5t-80.5 46
t-88 54.5t-80.5 66.5t-59 88t-22.5 113q0 141 113 221t283 80q167 0 260 -37l-29 -227q-115 59 -227 59q-56 0 -87.5 -22.5t-31.5 -59.5q0 -31 22.5 -58t59 -50t80.5 -47t88 -54t80.5 -65t59 -86t22.5 -111q0 -134 -109.5 -211t-286.5 -77q-85 0 -171.5 16.5t-125.5 40.5z
M1628 0l-217 -14q-24 37 -43 100h-8q-31 -45 -88 -72.5t-125 -27.5q-89 0 -144 46.5t-55 135.5q0 119 104.5 178t286.5 64v41q0 110 -118 110q-114 0 -222 -59l-16 198q148 54 307 54q156 0 236 -70.5t80 -206.5q0 -52 -4.5 -142t-4.5 -142q0 -102 31 -193zM3330 0l-219 -14
q-27 46 -43 100h-6q-31 -45 -88.5 -72.5t-126.5 -27.5q-87 0 -142 46.5t-55 135.5q0 119 104 178t287 64v41q0 110 -119 110q-111 0 -223 -59l-14 198q148 54 307 54q156 0 234.5 -70.5t78.5 -206.5q0 -52 -3 -142t-3 -142q0 -102 31 -193zM4925 436q0 -49 -2 -74l-22 -22
h-391q28 -170 200 -170q91 0 172 43l15 -166q-92 -61 -260 -61q-186 0 -296 97t-110 275q0 175 107 285.5t270 110.5q147 0 232 -88.5t85 -229.5zM4504 424l159 8q4 28 4 53q0 51 -16.5 86t-52.5 35q-45 0 -68.5 -50.5t-25.5 -131.5zM1339 152v180q-59 -6 -96 -36.5
t-37 -80.5q0 -37 21 -59.5t55 -22.5q32 0 57 19zM3041 152v180q-59 -6 -96 -36.5t-37 -80.5q0 -37 20.5 -59.5t55.5 -22.5q32 0 57 19zM5046 174q37 0 62.5 -26.5t25.5 -63.5t-25.5 -63.5t-62.5 -26.5t-63.5 26.5t-26.5 63.5t26.5 63.5t63.5 26.5zM5128 84q0 34 -24 58
t-58 24t-58 -24t-24 -58t24 -58t58 -24t58 24t24 58zM5009 135h37q15 0 23 -6q10 -5 10 -20q0 -10 -6 -19q-6 -6 -12 -6q13 -3 16 -21q0 -15 6 -30h-16q-1 3 -2 12.5t-2 13.5q-2 11 -6 15t-17 4h-16v-45h-15v102zM5024 90h20q11 0 15 2q6 6 6 14q0 17 -21 17h-20v-33z" />
    <glyph glyph-name="symbol5" unicode="&#x2f;symbol&#x35;&#x2f;" horiz-adv-x="1443" 
d="M475 -12l-270 278l254 479l264 -278zM971 -12l-248 479l262 278l254 -479z" />
    <glyph glyph-name=".notdef" horiz-adv-x="1392" 
d="M205 0v1532h983v-1532h-983zM365 1450l331 -598l332 598h-663zM287 1423v-1310l364 655zM743 768l363 -655v1310zM360 82h672l-336 604z" />
    <glyph glyph-name=".null" horiz-adv-x="0" 
 />
    <glyph glyph-name="nonmarkingreturn" horiz-adv-x="682" 
 />
    <glyph glyph-name="space" unicode=" " horiz-adv-x="520" 
 />
    <glyph glyph-name="exclam" unicode="!" horiz-adv-x="641" 
d="M401 442h-159q-15 257 -62 967l246 21l29 -29q-9 -463 -54 -959zM465 141q0 -66 -45 -113.5t-113 -47.5q-60 0 -97.5 39t-37.5 96q0 65 48 113t114 48q58 0 94.5 -37.5t36.5 -97.5z" />
    <glyph glyph-name="quotedbl" unicode="&#x22;" horiz-adv-x="714" 
d="M299 1552l16 -41l-69 -540h-88l-64 581h205zM616 1552l17 -41l-70 -540h-90l-61 581h204z" />
    <glyph glyph-name="numbersign" unicode="#" horiz-adv-x="1443" 
d="M426 -20l-125 20l-16 16l67 265h-254l-16 16l18 125h287l66 262h-267l-16 16l18 125h299l74 297l125 -20l16 -17l-65 -260h313l74 297l125 -20l16 -17l-65 -260h246l16 -16l-19 -125h-278l-66 -262h269l16 -16l-18 -125h-301l-76 -301l-125 20l-16 16l65 265h-311z
M537 422h313l65 262h-313z" />
    <glyph glyph-name="dollar" unicode="$" horiz-adv-x="1017" 
d="M453 -287l-17 17v250q-94 2 -187.5 21.5t-146.5 53.5l17 224q67 -44 165 -69.5t173 -25.5q90 0 139 46t49 126q0 48 -18.5 88t-57.5 73.5t-73.5 56t-91.5 54.5l-27 15q-49 29 -80.5 50t-71.5 57t-63 73t-39.5 90.5t-16.5 116.5q0 159 99 261.5t264 129.5v269l96 6l17 -17
v-249q81 0 162 -16.5t135 -41.5l-31 -227q-125 80 -270 80q-96 0 -148.5 -46.5t-52.5 -127.5q0 -23 4 -43.5t15 -39.5t20.5 -33.5t29 -31.5t32 -27.5t39 -27t39.5 -24.5t44 -25.5t43 -24.5q47 -27 80.5 -49.5t72 -59t62.5 -75.5t40.5 -95t16.5 -120q0 -164 -99 -265.5
t-267 -123.5v-267z" />
    <glyph glyph-name="percent" unicode="%" horiz-adv-x="1972" 
d="M883 1022q0 -199 -116 -309.5t-284 -110.5q-167 0 -273 107.5t-106 294.5q0 198 114.5 312t287.5 114q169 0 273 -110.5t104 -297.5zM1509 1430l-868 -1450h-113l867 1450h114zM324 1022q0 -140 42.5 -218.5t127.5 -78.5q83 0 125.5 75.5t42.5 209.5q0 141 -41.5 219
t-126.5 78q-83 0 -126.5 -72t-43.5 -213zM1868 260q0 -199 -116 -309.5t-284 -110.5q-167 0 -272.5 107t-105.5 295q0 198 114 312t287 114q169 0 273 -110.5t104 -297.5zM1309 260q0 -140 42.5 -218.5t127.5 -78.5q83 0 125.5 75.5t42.5 209.5q0 297 -168 297
q-81 0 -125.5 -72.5t-44.5 -212.5z" />
    <glyph glyph-name="ampersand" unicode="&#x26;" horiz-adv-x="1587" 
d="M721 1237q-71 0 -117.5 -38.5t-46.5 -106.5q0 -40 16.5 -85t52 -96t54 -75.5t59.5 -73.5l316 -377q51 118 51 260q0 91 -14 168l249 31l35 -33q-14 -331 -205 -557q93 -90 183 -90q62 0 114 29l21 -160q-31 -21 -87.5 -37t-117.5 -16q-148 0 -289 118
q-186 -118 -407 -118q-203 0 -322 102.5t-119 265.5q0 132 80 235t209 154q-147 178 -147 338q0 150 117 252.5t315 102.5q132 0 235 -51.5t160 -139.5l-125 -199q-123 197 -270 197zM406 408q0 -114 78 -193.5t208 -79.5q111 0 205 60q-29 33 -117 133l-266 317
q-54 -43 -81 -107.5t-27 -129.5z" />
    <glyph glyph-name="quotesingle" unicode="'" horiz-adv-x="397" 
d="M293 1552l16 -41l-69 -540h-88l-64 581h205z" />
    <glyph glyph-name="parenleft" unicode="(" horiz-adv-x="854" 
d="M702 -403q-246 160 -380 410.5t-134 567.5q0 316 134 566.5t380 410.5l95 -127q-342 -336 -342 -850q0 -512 342 -851z" />
    <glyph glyph-name="parenright" unicode=")" horiz-adv-x="854" 
d="M666 575q0 -317 -134 -567.5t-380 -410.5l-95 127q178 176 259 387t81 464q0 516 -340 850l95 127q246 -160 380 -410.5t134 -566.5z" />
    <glyph glyph-name="asterisk" unicode="*" horiz-adv-x="1015" 
d="M434 721l-12 33l51 311l-270 -217l-82 139l22 27l301 110l-329 127l80 138l34 -5l246 -202l-53 346h158l14 -33l-55 -317l274 223l80 -139l-23 -27l-295 -111l324 -127l-80 -137l-35 4l-245 205l55 -348h-160z" />
    <glyph glyph-name="plus" unicode="+" 
d="M1063 641h-377v-385h-141l-2 385h-402v133q97 4 402 8l-2 375h145v-375q147 2 379 2l14 -14z" />
    <glyph glyph-name="comma" unicode="," horiz-adv-x="538" 
d="M84 -326q113 167 145 308q-55 8 -90 49t-35 100q0 70 50 122t120 52q68 0 112 -46t44 -132q0 -124 -84.5 -271.5t-183.5 -248.5z" />
    <glyph glyph-name="hyphen" unicode="-" horiz-adv-x="794" 
d="M61 537v90h672v-90h-672z" />
    <glyph glyph-name="period" unicode="." horiz-adv-x="542" 
d="M434 145q0 -70 -48.5 -117.5t-117.5 -47.5q-68 0 -113.5 45t-45.5 112q0 69 50.5 118.5t121.5 49.5q66 0 109.5 -45t43.5 -115z" />
    <glyph glyph-name="slash" unicode="/" horiz-adv-x="735" 
d="M637 1532l16 -16l-383 -1530l-127 22l-16 17l383 1529z" />
    <glyph glyph-name="zero" unicode="0" horiz-adv-x="1353" 
d="M1235 711q0 -176 -46 -317t-125.5 -230.5t-181.5 -136.5t-218 -47q-117 0 -216 47.5t-172 136t-114 224t-41 302.5q0 172 44.5 313.5t122 234t181.5 142.5t223 50q244 0 393.5 -194.5t149.5 -524.5zM385 711q0 -175 29.5 -298.5t96 -195.5t167.5 -72q145 0 218 144.5
t73 408.5q0 269 -70.5 417.5t-220.5 148.5q-141 0 -217 -139t-76 -414z" />
    <glyph glyph-name="one" unicode="1" horiz-adv-x="745" 
d="M285 1159h-4l-218 -39l-36 156l481 151l29 -28v-1399h-256v872q0 207 4 287z" />
    <glyph glyph-name="two" unicode="2" horiz-adv-x="1234" 
d="M186 0l-30 190q90 71 171 142.5t168 162t149.5 173.5t103 173t40.5 165q0 103 -65 168t-182 65q-162 0 -359 -127l-26 205q88 46 208.5 79.5t235.5 33.5q201 0 327 -103t126 -266q0 -86 -39.5 -183t-104 -186t-151.5 -179.5t-175.5 -165t-183.5 -142.5h332q179 0 328 20
l-21 -225h-852z" />
    <glyph glyph-name="three" unicode="3" horiz-adv-x="1069" 
d="M104 1319q79 45 195 78t225 33q171 0 282.5 -85t111.5 -219q0 -119 -88 -221t-242 -151q183 -19 290 -112.5t107 -246.5q0 -185 -153.5 -300t-403.5 -115q-180 0 -344 47l25 178q62 -20 152.5 -33.5t156.5 -13.5q135 0 219 61t84 166q0 58 -27 101t-75.5 67t-108 35.5
t-131.5 11.5q-83 0 -160 -14v176q198 33 316 114.5t118 194.5q0 76 -52 122t-150 46q-155 0 -334 -100z" />
    <glyph glyph-name="four" unicode="4" horiz-adv-x="1265" 
d="M59 518l590 887l279 22l28 -28v-860q127 3 240 18l-20 -211h-220v-346h-243l2 346h-625zM272 539v-7q132 5 428 5h15v317q0 254 10 363h-6z" />
    <glyph glyph-name="five" unicode="5" horiz-adv-x="1136" 
d="M141 27l25 184q60 -20 147 -33.5t150 -13.5q136 0 219.5 70t83.5 196q0 123 -76 184.5t-198 61.5q-64 0 -139 -15t-128 -36l-41 26v758h475q172 0 328 21l-16 -226h-576v-368q90 22 193 22q93 0 172.5 -26t140.5 -75.5t96 -128.5t35 -179q0 -218 -157 -343.5t-408 -125.5
q-166 0 -326 47z" />
    <glyph glyph-name="six" unicode="6" horiz-adv-x="1222" 
d="M639 -20q-229 0 -366.5 161t-137.5 463q0 241 88.5 428.5t252 292.5t376.5 105q122 0 174 -25l-22 -193q-62 27 -150 27q-83 0 -158 -31t-137.5 -91.5t-104 -159.5t-51.5 -224h5q56 48 137.5 74.5t165.5 26.5q184 0 294.5 -108t110.5 -294q0 -105 -38 -192t-103.5 -143
t-152 -86.5t-183.5 -30.5zM637 668q-70 0 -138 -31t-98 -82q5 -209 57.5 -309.5t170.5 -100.5q103 0 163 71.5t60 191.5q0 119 -56 189.5t-159 70.5z" />
    <glyph glyph-name="seven" unicode="7" horiz-adv-x="1097" 
d="M76 1171l24 238h885l33 -29v-147q-240 -262 -382 -579.5t-157 -653.5h-264q13 216 100 451t206 422.5t255 326.5v4h-309q-223 0 -391 -33z" />
    <glyph glyph-name="eight" unicode="8" horiz-adv-x="1228" 
d="M602 -20q-218 0 -353.5 99t-135.5 257q0 133 95.5 234t229.5 147v6q-274 150 -274 352q0 152 131.5 253.5t331.5 101.5q201 0 319.5 -101.5t118.5 -238.5q0 -107 -74.5 -200.5t-197.5 -150.5v-6q325 -140 325 -371q0 -160 -140.5 -271t-375.5 -111zM618 1276
q-88 0 -151.5 -52t-63.5 -134q0 -79 64.5 -148.5t173.5 -118.5q82 51 133 122.5t51 144.5q0 82 -59 134t-148 52zM588 614q-98 -43 -164 -115.5t-66 -158.5q0 -91 71 -149t181 -58q112 0 186.5 57.5t75.5 149.5q1 87 -71.5 152.5t-212.5 121.5z" />
    <glyph glyph-name="nine" unicode="9" horiz-adv-x="1222" 
d="M526 539q-190 0 -305 111t-115 304q0 144 66 254t174.5 166t241.5 56q220 0 359.5 -159.5t139.5 -455.5q0 -170 -49.5 -321.5t-139 -266t-224 -181t-295.5 -66.5q-101 0 -158 16l-2 188q60 -14 139 -14q197 0 317 125t148 352h-4q-46 -53 -123.5 -80.5t-169.5 -27.5z
M584 1251q-96 0 -154.5 -78.5t-58.5 -203.5q0 -124 59 -195.5t170 -71.5q65 0 125 26.5t96 80.5q-1 217 -63.5 329.5t-173.5 112.5z" />
    <glyph glyph-name="colon" unicode=":" horiz-adv-x="542" 
d="M434 803q0 -70 -48.5 -118t-117.5 -48q-68 0 -113.5 45.5t-45.5 112.5q0 69 50.5 118.5t121.5 49.5q66 0 109.5 -45t43.5 -115zM434 145q0 -70 -48.5 -117.5t-117.5 -47.5q-68 0 -113.5 45t-45.5 112q0 69 50.5 118.5t121.5 49.5q66 0 109.5 -45t43.5 -115z" />
    <glyph glyph-name="semicolon" unicode=";" horiz-adv-x="548" 
d="M442 803q0 -70 -48.5 -118t-119.5 -48q-68 0 -113.5 45.5t-45.5 112.5q0 69 51.5 118.5t120.5 49.5q68 0 111.5 -45t43.5 -115zM84 -326q113 167 145 308q-55 8 -90 49t-35 100q0 70 50 122t120 52q68 0 112 -46t44 -132q0 -124 -84.5 -271.5t-183.5 -248.5z" />
    <glyph glyph-name="less" unicode="&#x3c;" 
d="M1042 221l-901 443v88l9 18q157 81 451.5 218.5t438.5 195.5v-150l-675 -319l677 -344v-150z" />
    <glyph glyph-name="equal" unicode="=" 
d="M1063 840h-922v133q348 10 924 10l14 -12zM1063 442h-922v136q348 10 924 10l14 -15z" />
    <glyph glyph-name="greater" unicode="&#x3e;" 
d="M178 221v150l680 344l-678 319v150q145 -58 438 -195t453 -219l8 -18v-88z" />
    <glyph glyph-name="question" unicode="?" horiz-adv-x="976" 
d="M481 449l-149 -7q-27 59 -27 115q0 49 24.5 94t61.5 78.5t80 71.5t80 72t61.5 82t24.5 100q0 84 -55.5 135t-147.5 51q-76 0 -159 -40.5t-140 -115.5l-98 136q74 96 189 152.5t259 56.5q191 0 303.5 -94.5t112.5 -245.5q0 -65 -22.5 -123.5t-58.5 -102t-79 -82.5
t-86.5 -70.5t-79.5 -59.5t-58.5 -56.5t-22.5 -54.5q0 -36 4 -76zM567 141q0 -66 -44 -113.5t-111 -47.5q-62 0 -100 39t-38 96q0 65 48.5 113t115.5 48q57 0 93 -37.5t36 -97.5z" />
    <glyph glyph-name="at" unicode="@" horiz-adv-x="2330" 
d="M1645 -330q-114 -87 -276 -142.5t-347 -55.5q-258 0 -462 112.5t-318.5 316.5t-114.5 464q0 162 46.5 317.5t128 285t196 239t247.5 185t285.5 118t306.5 42.5q190 0 353 -64.5t275 -175t175.5 -261.5t63.5 -322q0 -204 -85 -376t-233 -272.5t-325 -100.5
q-86 0 -146.5 26t-91 67.5t-41.5 98.5t-6 114t22 120h-10q-27 -73 -67.5 -144.5t-93.5 -136.5t-119.5 -105t-133.5 -40q-100 0 -159.5 84t-59.5 237q0 106 29 211.5t86.5 200t137 168t188 116.5t231.5 43q80 0 172.5 -16.5t163.5 -50.5l-94 -404q-45 -197 -45 -281
q-2 -182 143 -182q72 0 148 45.5t140 123.5t105 196.5t41 251.5q0 159 -58 296.5t-159.5 234.5t-243.5 152.5t-305 55.5q-129 0 -262 -36t-255.5 -101.5t-230 -163t-187 -215t-125.5 -263.5t-46 -302q0 -235 100 -420.5t287.5 -292t430.5 -106.5q168 0 297 44.5t266 123.5z
M1010 195q48 0 103.5 57.5t102 143.5t83.5 181.5t55 176.5l24 106q-69 27 -108 27q-88 0 -171 -87t-131 -211t-48 -237q0 -74 23.5 -115.5t66.5 -41.5z" />
    <glyph glyph-name="A" unicode="A" horiz-adv-x="1290" 
d="M281 0h-250l381 1198q41 121 61 217l301 12l41 -34l445 -1393h-265l-108 340h-498zM512 731l-63 -201h376l-61 199q-100 341 -121 457h-8q-46 -196 -123 -455z" />
    <glyph glyph-name="B" unicode="B" horiz-adv-x="1259" 
d="M633 0h-459v1069q0 208 -18 340h487q214 0 341.5 -102t127.5 -267q0 -111 -59.5 -188.5t-165.5 -118.5q136 -37 209 -125.5t73 -220.5q0 -178 -149 -282.5t-387 -104.5zM600 1219h-164v-416h162q121 0 184.5 55t63.5 150q0 98 -63 154.5t-183 56.5zM612 627h-176v-437
h180q135 0 208 57.5t73 158.5q0 103 -70.5 162t-214.5 59z" />
    <glyph glyph-name="C" unicode="C" horiz-adv-x="1193" 
d="M1098 291l30 -215q-158 -96 -391 -96q-293 0 -464 187t-171 519q0 166 49 306t135 235.5t207 149t263 53.5q214 0 362 -87l-51 -227q-150 96 -307 96q-172 0 -278.5 -138t-106.5 -378q0 -229 105.5 -364t293.5 -135q175 0 324 94z" />
    <glyph glyph-name="D" unicode="D" horiz-adv-x="1404" 
d="M1303 713q0 -168 -54.5 -303.5t-150.5 -225t-227.5 -137t-286.5 -47.5h-410v1069q0 208 -18 340h460q311 0 499 -187t188 -509zM600 1219h-164v-1029h166q215 0 321.5 136t106.5 374q0 233 -111 376t-319 143z" />
    <glyph glyph-name="E" unicode="E" horiz-adv-x="1099" 
d="M1032 205v-205h-858v1069q0 208 -18 340h833l29 -29l-6 -176l-576 15v-435l482 9l-7 -191l-475 10v-422z" />
    <glyph glyph-name="F" unicode="F" horiz-adv-x="1034" 
d="M436 0h-262v1069q0 208 -18 340h809l28 -29l-6 -176l-551 15v-467l455 8l-6 -191l-449 11v-580z" />
    <glyph glyph-name="G" unicode="G" horiz-adv-x="1314" 
d="M1171 645l29 -29l-6 -546q-88 -41 -205 -65.5t-231 -24.5q-310 0 -483 184t-173 508q0 344 189.5 551t507.5 207q215 0 368 -80l-45 -228q-140 97 -311 97q-198 0 -317 -137.5t-119 -389.5q0 -233 105.5 -370.5t305.5 -137.5q65 0 162 17v24q0 217 -24 400z" />
    <glyph glyph-name="H" unicode="H" horiz-adv-x="1454" 
d="M436 0h-262v1059q0 194 -18 350l252 21l28 -29v-606h580v264q0 185 -19 350l254 21l29 -29v-1401h-264v604h-580v-604z" />
    <glyph glyph-name="I" unicode="I" horiz-adv-x="610" 
d="M436 0h-262v1059q0 194 -18 350l252 21l28 -29v-1401z" />
    <glyph glyph-name="J" unicode="J" horiz-adv-x="600" 
d="M82 -426l-82 115q164 184 164 520v850q0 154 -25 340l260 31l27 -27v-1194q0 -247 -74.5 -387t-269.5 -248z" />
    <glyph glyph-name="K" unicode="K" horiz-adv-x="1280" 
d="M174 1059q0 194 -18 350l252 21l28 -29v-635h162q58 104 360 664l240 -23l16 -29l-401 -649l449 -729l-299 -14q-156 238 -363 587h-164v-573h-262v1059z" />
    <glyph glyph-name="L" unicode="L" horiz-adv-x="1034" 
d="M1001 205v-205h-827v1059q0 194 -18 350l252 21l28 -29v-1211z" />
    <glyph glyph-name="M" unicode="M" horiz-adv-x="1802" 
d="M1513 1430l35 -29l154 -1401h-258l-58 518q-30 238 -55 627h-4q-46 -235 -153 -627l-146 -518h-293l-143 518q-104 362 -154 627h-4q-13 -209 -57 -627l-58 -518h-219l156 1413l342 14l172 -575q86 -319 129 -608h6q48 310 129 608l166 561z" />
    <glyph glyph-name="N" unicode="N" horiz-adv-x="1445" 
d="M758 858q185 -303 278 -512h6q-13 130 -16.5 242.5t-3.5 398.5q0 228 -18 422l241 18l29 -28v-1399h-254q-69 114 -181 302.5t-157 262.5q-182 295 -272 486h-4q18 -166 18 -441v-610h-250v1069q0 184 -18 340l266 16q267 -452 336 -567z" />
    <glyph glyph-name="O" unicode="O" horiz-adv-x="1447" 
d="M1346 709q0 -174 -50 -313.5t-137 -229.5t-202 -138t-248 -48q-132 0 -243.5 48t-192 136t-126 221.5t-45.5 296.5q0 169 48.5 310t133.5 236.5t202.5 148.5t254.5 53q275 0 440 -196t165 -525zM375 707q0 -153 38.5 -271t119 -188t192.5 -70q170 0 259 140t89 384
q0 117 -20.5 212t-61 166.5t-106.5 111t-152 39.5q-167 0 -262.5 -141.5t-95.5 -382.5z" />
    <glyph glyph-name="P" unicode="P" horiz-adv-x="1189" 
d="M436 0h-262v1069q0 208 -18 340h465q236 0 375 -125.5t139 -337.5q0 -149 -73 -257.5t-195.5 -162t-280.5 -53.5h-150v-473zM567 1219h-131v-557h129q150 0 223.5 71.5t73.5 204.5q0 130 -72 205.5t-223 75.5z" />
    <glyph glyph-name="Q" unicode="Q" horiz-adv-x="1443" 
d="M1346 709q0 -152 -38 -278t-106.5 -215t-159.5 -145.5t-200 -78.5q135 -70 317.5 -107t360.5 -37l-37 -233q-221 0 -447.5 107t-394.5 262q-242 24 -390.5 208.5t-148.5 489.5q0 169 48.5 310t133.5 236.5t202.5 148.5t254.5 53q275 0 440 -196t165 -525zM375 707
q0 -153 38.5 -271t119 -188t192.5 -70q170 0 259 140t89 384q0 117 -20.5 212t-61 166.5t-106.5 111t-152 39.5q-167 0 -262.5 -141.5t-95.5 -382.5z" />
    <glyph glyph-name="R" unicode="R" horiz-adv-x="1241" 
d="M436 0h-262v1069q0 208 -18 340h430q259 0 404 -118t145 -322q0 -143 -69.5 -240.5t-186.5 -146.5l323 -582l-299 -14q-128 244 -254 528h-213v-514zM567 1219h-131v-523h129q150 0 223.5 66.5t73.5 191.5q0 124 -71 194.5t-224 70.5z" />
    <glyph glyph-name="S" unicode="S" horiz-adv-x="1087" 
d="M985 375q0 -187 -137 -291t-363 -104q-103 0 -210.5 20t-172.5 55l19 224q74 -44 180.5 -69.5t187.5 -25.5q108 0 167 46t59 126q0 39 -17.5 75t-34 58t-65 53t-67.5 41.5t-84 42.5q-7 4 -11 6t-10.5 5t-11.5 6q-69 35 -114 64.5t-93.5 76t-73 108t-24.5 138.5
q0 187 141.5 293.5t370.5 106.5q88 0 177.5 -16.5t149.5 -41.5l-33 -227q-140 80 -299 80q-114 0 -175.5 -46.5t-61.5 -127.5q0 -26 8 -50t17.5 -42t31.5 -38t37.5 -32.5t47.5 -31t49 -27.5t56 -28.5t54 -27.5q52 -27 89 -49.5t81 -59t71 -75.5t45.5 -95t18.5 -120z" />
    <glyph glyph-name="T" unicode="T" horiz-adv-x="1146" 
d="M707 0h-265v1212q-135 -2 -409 -14l14 211h1053l14 -211q-275 12 -407 14v-1212z" />
    <glyph glyph-name="U" unicode="U" horiz-adv-x="1363" 
d="M150 1061q0 169 -21 350l258 19l27 -27v-909q0 -151 74.5 -231.5t201.5 -80.5q126 0 199.5 80.5t73.5 231.5v616q0 157 -21 301l272 16v-952q0 -120 -42.5 -216t-116.5 -156t-171 -91.5t-210 -31.5q-112 0 -206.5 31.5t-166 92.5t-111.5 156t-40 215v586z" />
    <glyph glyph-name="V" unicode="V" horiz-adv-x="1277" 
d="M502 -4l-473 1407l280 27l252 -801q83 -261 101 -359q34 150 110 375l250 785l211 -17l16 -29l-473 -1388h-274z" />
    <glyph glyph-name="W" unicode="W" horiz-adv-x="1986" 
d="M430 -4l-393 1407l276 27l201 -777q59 -236 82 -383q26 138 100 398l195 745l254 17l201 -777q67 -239 92 -383q25 148 92 402l194 758l211 -17l17 -29l-393 -1388h-275l-194 674q-19 71 -50 207t-43 184h-4q-59 -261 -96 -395l-192 -670h-275z" />
    <glyph glyph-name="X" unicode="X" horiz-adv-x="1196" 
d="M47 0l-14 29l401 655l-401 719l280 27l310 -578h4l295 578l229 -19l14 -29l-397 -686l397 -696h-295l-290 528h-5l-294 -528h-234z" />
    <glyph glyph-name="Y" unicode="Y" horiz-adv-x="1169" 
d="M453 475l-424 928l280 27l187 -451q80 -204 110 -299h6q60 158 119 299l182 451l213 -17l17 -29l-426 -913v-471h-264v475z" />
    <glyph glyph-name="Z" unicode="Z" horiz-adv-x="1126" 
d="M104 0l-43 170l697 1024l-670 -14l16 229h883l66 -170l-688 -1022l686 12l-15 -229h-932z" />
    <glyph glyph-name="bracketleft" unicode="[" horiz-adv-x="792" 
d="M213 1552h496v-194h-250v-1565h250v-196h-496v1955z" />
    <glyph glyph-name="backslash" unicode="\" horiz-adv-x="774" 
d="M506 -14l-383 1530l16 16l127 22l383 -1529l-16 -17z" />
    <glyph glyph-name="bracketright" unicode="]" horiz-adv-x="792" 
d="M578 1552v-1955h-496v196h252v1565h-252v194h496z" />
    <glyph glyph-name="asciicircum" unicode="^" horiz-adv-x="1077" 
d="M326 430h-154l301 692h127l305 -692h-153l-220 498z" />
    <glyph glyph-name="underscore" unicode="_" horiz-adv-x="858" 
d="M0 -446v90h858v-90h-858z" />
    <glyph glyph-name="grave" unicode="`" horiz-adv-x="618" 
d="M420 1169q-198 142 -324 334l15 43l231 25q56 -172 174 -377z" />
    <glyph glyph-name="a" unicode="a" horiz-adv-x="1052" 
d="M889 281q0 -153 45 -281l-215 -20q-34 56 -55 141h-7q-44 -60 -126 -100.5t-179 -40.5q-123 0 -195.5 65.5t-72.5 179.5q0 85 42.5 150t119.5 105.5t175 62t218 26.5v99q0 182 -190 182q-156 0 -310 -90l-14 201q79 33 184 56t203 23q189 0 286 -87.5t97 -250.5
q0 -74 -3 -218.5t-3 -202.5zM336 268q0 -58 35.5 -96.5t97.5 -38.5q93 0 170 70v276q-133 -11 -218 -65t-85 -146z" />
    <glyph glyph-name="b" unicode="b" horiz-adv-x="1163" 
d="M1061 516q0 -256 -123 -396t-338 -140q-130 0 -231 34l-217 -34v1202q0 135 -25 340l250 30l31 -28v-578q112 94 258 94q183 0 289 -140.5t106 -383.5zM565 874q-91 0 -157 -51v-678q74 -24 145 -24q119 0 180.5 96.5t61.5 284.5q0 372 -230 372z" />
    <glyph glyph-name="c" unicode="c" horiz-adv-x="993" 
d="M920 965l-58 -199q-122 84 -241 84q-116 0 -184 -85.5t-68 -240.5q0 -168 76.5 -264t213.5 -96q106 0 230 69l16 -170q-125 -83 -309 -83q-223 2 -357.5 141t-134.5 379q0 246 141 393t367 147q180 0 308 -75z" />
    <glyph glyph-name="d" unicode="d" horiz-adv-x="1179" 
d="M735 1522l250 30l29 -28v-1248q0 -146 47 -276l-221 -20q-26 51 -56 139h-4q-101 -139 -280 -139q-177 0 -286.5 133.5t-109.5 363.5q0 266 146 414.5t379 148.5q61 0 129 -14v156q0 190 -23 340zM369 510q0 -172 63 -274.5t174 -102.5q90 0 152 66v690q-58 10 -101 10
q-136 0 -212 -100t-76 -289z" />
    <glyph glyph-name="e" unicode="e" horiz-adv-x="1071" 
d="M977 514l-31 -31h-575q15 -161 95 -240t212 -79q128 0 254 74l16 -170q-54 -36 -142 -62t-196 -26q-231 0 -368.5 135.5t-137.5 380.5q0 124 38 227.5t103.5 172.5t153 106.5t187.5 37.5q181 0 287 -114t106 -299q0 -76 -2 -113zM573 887q-87 0 -142.5 -82t-61.5 -227
l356 14q2 23 2 74q0 99 -40 160t-114 61z" />
    <glyph glyph-name="f" unicode="f" horiz-adv-x="731" 
d="M451 0h-256v862l-150 8v95l150 30q-7 107 -7 162q0 189 107 292t301 103q159 0 266 -63l-53 -195q-108 68 -209 68q-160 0 -160 -188q0 -38 6 -179h263l18 -26l-8 -115l-268 8v-862z" />
    <glyph glyph-name="g" unicode="g" horiz-adv-x="1050" 
d="M215 129q0 108 109 182q-108 39 -172 126.5t-64 207.5q0 166 115 280.5t305 114.5q153 0 240 -67q35 58 101 89.5t138 31.5l31 -23l-6 -170h-209q45 -36 74.5 -98t29.5 -146q0 -161 -112 -268.5t-297 -107.5q-38 0 -72 6q-16 -32 -16 -62q0 -45 24 -64t80 -24l184 -12
q143 -8 231.5 -75t88.5 -193q0 -166 -148 -275.5t-395 -109.5q-204 0 -327 74t-123 190q0 70 45 120.5t108 71.5l94 -41q-28 -36 -28 -75q0 -88 71.5 -150.5t192.5 -62.5q113 0 183.5 52.5t70.5 137.5q0 135 -180 154l-168 16q-96 9 -147.5 53.5t-51.5 116.5zM662 659
q0 248 -160 248q-168 0 -168 -248q0 -118 42.5 -180.5t125.5 -62.5q160 0 160 243z" />
    <glyph glyph-name="h" unicode="h" horiz-adv-x="1171" 
d="M408 0h-256v1182q0 175 -25 340l250 30l31 -28v-621q153 137 321 137q132 0 206.5 -82t74.5 -231v-727h-258v678q0 184 -150 184q-96 0 -194 -76v-786z" />
    <glyph glyph-name="i" unicode="i" horiz-adv-x="575" 
d="M444 1376q0 -72 -49 -124t-123 -52q-66 0 -106.5 43t-40.5 105q0 71 52.5 122.5t125.5 51.5q62 0 101.5 -40.5t39.5 -105.5zM158 0v670q0 175 -25 340l252 30l29 -28v-1012h-256z" />
    <glyph glyph-name="j" unicode="j" horiz-adv-x="579" 
d="M442 1376q0 -72 -49 -124t-121 -52q-66 0 -107.5 43t-41.5 105q0 70 53 122t125 52q63 0 102 -40t39 -106zM113 -528l-97 94q144 167 144 442v662q0 169 -23 340l250 30l29 -28v-992q0 -207 -68.5 -331.5t-234.5 -216.5z" />
    <glyph glyph-name="k" unicode="k" horiz-adv-x="1091" 
d="M152 1182q0 154 -25 340l250 30l31 -28v-949h112q122 201 264 465l209 -22l17 -29l-277 -401q107 -198 338 -588l-289 -20q-129 215 -254 458h-120v-438h-256v1182z" />
    <glyph glyph-name="l" unicode="l" horiz-adv-x="575" 
d="M414 0h-256v1182q0 154 -25 340l252 30l29 -28v-1524z" />
    <glyph glyph-name="m" unicode="m" horiz-adv-x="1765" 
d="M418 0h-256v672q0 152 -41 321l239 47q34 -89 46 -147q153 147 327 147q189 0 252 -161q158 161 340 161q131 0 204 -80.5t73 -224.5v-735h-256v686q0 176 -148 176q-89 0 -190 -78q0 -7 1 -24t1 -25v-735h-256v686q0 176 -150 176q-88 0 -186 -76v-786z" />
    <glyph glyph-name="n" unicode="n" horiz-adv-x="1181" 
d="M418 0h-256v672q0 152 -41 321l239 47q34 -90 46 -149q155 149 333 149q132 0 206.5 -82t74.5 -231v-727h-258v678q0 184 -150 184q-92 0 -194 -76v-786z" />
    <glyph glyph-name="o" unicode="o" horiz-adv-x="1153" 
d="M1051 516q0 -130 -39.5 -233.5t-107.5 -168.5t-155 -99.5t-186 -34.5q-202 0 -330.5 137.5t-128.5 378.5q0 127 38 231t104.5 172t154.5 104.5t189 36.5q206 0 333.5 -142t127.5 -382zM369 516q0 -180 52 -281.5t157 -101.5q101 0 153.5 97t52.5 272q0 385 -206 385
q-100 0 -154.5 -94t-54.5 -277z" />
    <glyph glyph-name="p" unicode="p" horiz-adv-x="1175" 
d="M162 -500v1172q0 149 -41 321l239 47q26 -68 37 -112q115 112 283 112q174 0 282.5 -140t108.5 -378q0 -252 -120.5 -397t-340.5 -145q-100 0 -192 28v-170q0 -172 22 -336l-250 -30zM418 819v-665q68 -33 143 -33q122 0 184 98.5t62 286.5q0 185 -61 276.5t-173 91.5
q-94 0 -155 -55z" />
    <glyph glyph-name="q" unicode="q" horiz-adv-x="1177" 
d="M758 -500v584q-104 -104 -256 -104q-179 0 -288.5 139t-109.5 373q0 258 140 403t370 145q98 0 205 -28l195 28v-1198q0 -162 24 -340l-252 -30zM369 512q0 -175 60 -277t171 -102q95 0 158 57v701q-41 8 -86 8q-148 0 -225.5 -100.5t-77.5 -286.5z" />
    <glyph glyph-name="r" unicode="r" horiz-adv-x="817" 
d="M418 0h-256v672q0 152 -41 321l239 47q44 -112 56 -213q126 213 272 213q65 0 100 -28l-26 -242q-56 16 -115 16q-56 0 -118 -21t-111 -60v-705z" />
    <glyph glyph-name="s" unicode="s" horiz-adv-x="911" 
d="M797 983l-19 -197q-151 82 -276 82q-75 0 -118.5 -30.5t-43.5 -81.5q0 -37 27 -67t70 -52.5t95 -44.5t104.5 -49.5t95.5 -61t70 -85.5t27 -117q0 -137 -111 -218t-298 -81q-90 0 -181.5 19.5t-154.5 53.5l18 195q78 -45 167.5 -70.5t156.5 -25.5q74 0 115 30t41 78
q0 37 -27 67t-70 52.5t-95 44.5t-104 49.5t-95 60.5t-70 85t-27 116q0 137 112.5 221t297.5 84q153 0 293 -57z" />
    <glyph glyph-name="t" unicode="t" horiz-adv-x="794" 
d="M719 881l-287 6v-529q0 -194 141 -194q81 0 162 49l19 -160q-110 -73 -262 -73q-153 0 -234.5 92.5t-81.5 277.5v541l-143 2v96l149 31l64 254l160 12l30 -31l-4 -235h279l18 -29z" />
    <glyph glyph-name="u" unicode="u" horiz-adv-x="1165" 
d="M158 668q0 151 -23 340l250 32l29 -28v-668q0 -170 143 -170q93 0 186 72v774l256 20v-761q0 -149 35 -277l-213 -22q-30 65 -53 151h-8q-145 -151 -324 -151q-129 0 -203.5 76t-74.5 208v404z" />
    <glyph glyph-name="v" unicode="v" horiz-adv-x="997" 
d="M969 995l-332 -999h-277l-329 1022l268 22l137 -514q71 -222 86 -348h4q20 121 92 348l138 514l196 -16z" />
    <glyph glyph-name="w" unicode="w" horiz-adv-x="1609" 
d="M313 -4l-282 1022l262 22l117 -499q54 -179 77 -326h5q27 151 73 320l111 493h305l111 -483q4 -16 16.5 -62t19 -72t16 -64.5t16 -70.5t9.5 -59h5q17 106 75 324l115 499l199 -16l16 -29l-281 -999h-303l-114 461q-60 217 -76 350h-4q-12 -101 -74 -350l-117 -461h-297z
" />
    <glyph glyph-name="x" unicode="x" horiz-adv-x="993" 
d="M684 0l-221 389l-205 -389h-207l-12 29l297 481l-297 504l260 26l227 -422l211 422l205 -16l14 -29l-301 -485l301 -510h-272z" />
    <glyph glyph-name="y" unicode="y" horiz-adv-x="989" 
d="M969 995l-307 -934q-32 -100 -65 -177.5t-83.5 -156t-109.5 -130.5t-143 -86.5t-185 -38.5l-37 225q303 16 420 317h-107l-321 1004l268 22l137 -514q71 -222 86 -348h4q19 115 92 348l138 514l196 -16z" />
    <glyph glyph-name="z" unicode="z" horiz-adv-x="913" 
d="M59 809l15 211h743l27 -164l-510 -655l209 2q174 0 317 14l-14 -217h-764l-29 164l522 655z" />
    <glyph glyph-name="braceleft" unicode="{" horiz-adv-x="815" 
d="M348 256q0 108 -48.5 168.5t-160.5 75.5v147q112 15 160.5 74t48.5 172q0 73 -31.5 200.5t-31.5 192.5q0 145 104 205.5t342 60.5l6 -147q-100 0 -150 -44.5t-50 -127.5q0 -55 29.5 -183.5t29.5 -191.5q0 -113 -64 -186t-170 -99q105 -24 169.5 -97.5t64.5 -184.5
q0 -55 -29.5 -187t-29.5 -190q0 -83 50 -127.5t150 -44.5l-6 -148q-238 0 -342 61t-104 206q0 67 31.5 200t31.5 195z" />
    <glyph glyph-name="bar" unicode="|" horiz-adv-x="661" 
d="M276 -528l-14 16v2058l123 6l14 -16v-2058z" />
    <glyph glyph-name="braceright" unicode="}" horiz-adv-x="815" 
d="M676 500l-209 -244q0 -62 31.5 -195t31.5 -200q0 -145 -104 -206t-342 -61l-6 148q100 0 150.5 44.5t50.5 127.5q0 58 -30 190t-30 187q0 111 65 184t169 98q-105 26 -169.5 99.5t-64.5 185.5q0 63 30 191.5t30 183.5q0 83 -50.5 127.5t-150.5 44.5l6 147
q238 0 342 -60.5t104 -205.5q0 -65 -31.5 -192.5t-31.5 -200.5q0 -113 48.5 -172t160.5 -74v-147z" />
    <glyph glyph-name="asciitilde" unicode="~" 
d="M877 446q-52 0 -282.5 61.5t-256.5 61.5q-5 0 -10.5 -2t-12.5 -7.5t-13 -10.5t-14.5 -14.5t-15 -17t-16.5 -20.5t-16.5 -21t-18 -23.5t-18.5 -24.5l-84 55q26 48 46 80.5t51 73.5t64 62.5t66 21.5q51 0 282 -61.5t257 -61.5q10 0 23.5 9t36 35t33.5 40.5t44 56.5l82 -55
q-25 -46 -46 -80t-51.5 -74t-63.5 -62t-66 -22z" />
    <glyph glyph-name="nbspace" unicode="&#xa0;" horiz-adv-x="1228" 
 />
    <glyph glyph-name="exclamdown" unicode="&#xa1;" horiz-adv-x="641" 
d="M178 879q0 66 45 113.5t111 47.5q61 0 99 -39t38 -96q0 -65 -48.5 -113.5t-115.5 -48.5q-57 0 -93 38t-36 98zM242 580h159q27 -467 60 -969l-246 -21l-29 29q8 431 56 961z" />
    <glyph glyph-name="cent" unicode="&#xa2;" horiz-adv-x="1007" 
d="M535 -287l-17 17v258q-190 28 -302 175t-112 376q0 238 121.5 394t317.5 183v270l94 7l16 -17v-256q163 -9 273 -80l-54 -198q-118 88 -241 88q-120 0 -191 -99t-71 -268q0 -185 80.5 -291t222.5 -106q109 0 231 72l17 -170q-115 -80 -291 -86v-263z" />
    <glyph glyph-name="sterling" unicode="&#xa3;" horiz-adv-x="1169" 
d="M1083 -326q-44 -16 -135 -16q-68 0 -140 18t-126.5 41t-126 66.5t-109 71t-107.5 80t-93 69.5q-56 -24 -121 -24q-69 0 -107 26.5t-38 71.5q0 44 33.5 71t86.5 27q56 0 125 -29q42 99 70 345l8 94l-231 8l20 96l221 31h2q12 129 34 232.5t61.5 194.5t95 151.5t135.5 95.5
t182 35q93 0 172 -25.5t127 -63.5l-86 -200q-108 98 -213 98q-113 0 -169.5 -115t-92.5 -403h369l12 -27l-31 -108h-368l-6 -35q-56 -322 -185 -465q9 -5 71 -38.5t82 -43t77 -37t91.5 -38.5t86.5 -26.5t100 -21.5t98 -6q104 0 191 25z" />
    <glyph glyph-name="currency" unicode="&#xa4;" horiz-adv-x="1159" 
d="M954 76l-155 160q-100 -74 -238 -74q-124 0 -215 59l-143 -143l-99 98l140 141q-68 95 -68 224q0 141 80 247l-145 148l92 92q9 -9 63.5 -62t85.5 -85q95 63 221 63q131 0 230 -70l153 154l99 -98l-158 -158q59 -92 59 -211q0 -126 -63 -223q24 -25 85.5 -87t76.5 -79
v-16zM565 805q-113 0 -176 -74t-63 -178q0 -102 64.5 -177t180.5 -75q117 0 176.5 73t59.5 179q0 107 -66 179.5t-176 72.5z" />
    <glyph glyph-name="yen" unicode="&#xa5;" horiz-adv-x="1134" 
d="M135 221v103h305v168h-305v100h305l-411 811l268 27l172 -365q54 -121 119 -303h4q49 132 119 293l178 375l201 -17l16 -29l-412 -792h305v-100h-307v-168h307v-103h-307v-221h-252v221h-305z" />
    <glyph glyph-name="brokenbar" unicode="&#xa6;" horiz-adv-x="661" 
d="M399 735l-114 -6l-23 16v801l123 6l14 -16v-801zM399 -522l-114 -6l-23 16v795l123 6l14 -15v-796z" />
    <glyph glyph-name="section" unicode="&#xa7;" horiz-adv-x="1161" 
d="M727 1202q-79 0 -121.5 -40t-42.5 -105q0 -48 27.5 -105t71 -113.5t96.5 -118.5t106 -131t96.5 -140t71 -155.5t27.5 -168.5q0 -212 -162.5 -343.5t-423.5 -131.5q-177 0 -297 51l33 248q107 -72 215 -72q83 0 128.5 42t45.5 110q0 48 -27.5 104t-71 112t-96.5 117.5
t-106 130t-96.5 139t-71 154.5t-27.5 168q0 210 159 343t417 133q180 0 297 -50l-33 -247q-103 69 -215 69zM580 -209q87 10 153 42.5t104 79t57 100t19 112.5q0 70 -27.5 142.5t-71 136.5t-96 128.5t-105.5 128t-96.5 124.5t-71 128.5t-27.5 130.5q0 80 41.5 144.5
t128.5 83.5l-8 16q-87 -11 -153 -42.5t-104.5 -78t-57.5 -100t-19 -113.5q0 -70 27.5 -142.5t71 -136.5t96.5 -128t106.5 -127t97 -124t71 -128.5t27.5 -130.5q0 -80 -42 -145t-130 -82z" />
    <glyph glyph-name="dieresis" unicode="&#xa8;" horiz-adv-x="935" 
d="M389 1376q0 -69 -45 -118.5t-113 -49.5q-60 0 -97.5 40.5t-37.5 97.5q0 67 48 116t114 49q58 0 94.5 -37.5t36.5 -97.5zM838 1376q0 -69 -45 -118.5t-113 -49.5q-60 0 -97.5 40.5t-37.5 97.5q0 67 48 116t114 49q58 0 94.5 -37.5t36.5 -97.5z" />
    <glyph glyph-name="copyright" unicode="&#xa9;" horiz-adv-x="1402" 
d="M700 -92q-126 0 -238 46.5t-191.5 127t-126 192.5t-46.5 238q0 122 48 234t128.5 193t192 129t233.5 48q126 0 239 -48t193 -129t126.5 -192.5t46.5 -234.5q0 -163 -81.5 -302.5t-221 -220.5t-302.5 -81zM700 0q139 0 257 69t186.5 187t68.5 256q0 212 -150 362t-362 150
q-138 0 -256 -68.5t-187 -186.5t-69 -257q0 -218 147 -365t365 -147zM946 805l-39 -139q-74 53 -157 53q-74 0 -119 -51t-45 -136q0 -102 50 -158.5t140 -56.5q73 0 150 41l12 -116q-85 -54 -207 -54q-149 0 -240.5 88.5t-91.5 239.5q0 148 97 242t249 94q118 0 201 -47z
" />
    <glyph glyph-name="ordfeminine" unicode="&#xaa;" horiz-adv-x="880" 
d="M739 811q0 -127 37 -217l-180 -16q-28 51 -43 110h-6q-35 -48 -102.5 -79t-147.5 -31q-101 0 -161 51t-60 141q0 88 62 147.5t160.5 87.5t231.5 33v72q0 139 -153 139q-134 0 -256 -67l-10 161q156 62 319 62q155 0 235 -68t80 -198q0 -59 -3 -170.5t-3 -157.5zM287 805
q0 -45 28 -75t80 -30q74 0 135 54v213q-106 -8 -174.5 -50t-68.5 -112z" />
    <glyph glyph-name="guillemetleft" unicode="&#xab;" horiz-adv-x="989" 
d="M94 565v70q158 133 350 385l66 -29q-64 -196 -205 -391q141 -195 205 -391l-66 -29q-192 252 -350 385zM492 565v70q162 134 350 385l67 -29q-67 -198 -207 -391q140 -193 207 -391l-67 -29q-188 251 -350 385z" />
    <glyph glyph-name="logicalnot" unicode="&#xac;" 
d="M1047 668v-484h-146v355h-776v135q342 10 905 10z" />
    <glyph glyph-name="registered" unicode="&#xae;" horiz-adv-x="1402" 
d="M698 -92q-166 0 -304 79.5t-217 217.5t-79 305q0 165 81 304.5t220 220.5t303 81q167 0 306 -81.5t218 -220t79 -302.5q0 -122 -48 -234t-129 -193t-193.5 -129t-236.5 -48zM700 0q140 0 258 69t186 187t68 256q0 212 -150 362t-362 150q-138 0 -256 -68.5t-187 -187
t-69 -258.5q0 -142 67.5 -259.5t185 -184t259.5 -66.5zM623 188h-152v445q0 147 -16 229h217q150 0 230.5 -60t80.5 -173q0 -75 -38 -127.5t-97 -79.5l135 -234l-160 -10q-15 25 -32 60t-38 78.5t-32 66.5h-98v-195zM686 731h-63v-217h63q67 0 102 28t35 79t-35.5 80.5
t-101.5 29.5z" />
    <glyph glyph-name="macron" unicode="&#xaf;" horiz-adv-x="770" 
d="M96 1288v148h584v-148h-584z" />
    <glyph glyph-name="degree" unicode="&#xb0;" horiz-adv-x="696" 
d="M340 616q-107 0 -175.5 67.5t-68.5 176.5q0 114 73.5 188t186.5 74q106 0 175 -67t69 -174q0 -114 -74.5 -189.5t-185.5 -75.5zM348 1032q-69 0 -111 -48.5t-42 -119.5q0 -68 42.5 -112.5t108.5 -44.5q68 0 111 48.5t43 121.5q0 67 -42 111t-110 44z" />
    <glyph glyph-name="plusminus" unicode="&#xb1;" 
d="M1026 834h-340v-312h-143v312h-361v133q87 4 359 8l-2 305h147v-305q133 2 342 2l14 -12zM1063 172h-922v133q348 10 924 10l14 -12z" />
    <glyph glyph-name="twosuperior" unicode="&#xb2;" horiz-adv-x="772" 
d="M100 721l-22 129q391 262 391 444q0 64 -39 103t-106 39q-108 0 -226 -88l-18 145q54 32 133 54t158 22q132 0 216.5 -64.5t84.5 -169.5q0 -64 -36 -132.5t-98 -129.5t-129.5 -112t-144.5 -97h191q101 0 215 13l-15 -156h-555z" />
    <glyph glyph-name="threesuperior" unicode="&#xb3;" horiz-adv-x="763" 
d="M92 1503q49 27 126.5 46.5t148.5 19.5q118 0 195 -52t77 -135q0 -69 -56 -129t-149 -86q115 -14 181.5 -69.5t66.5 -143.5q0 -110 -103.5 -179.5t-269.5 -69.5q-129 0 -227 28l18 123q96 -29 201 -29q79 0 128.5 32t49.5 89q0 113 -209 113q-32 0 -106 -8v123
q119 14 195.5 57.5t76.5 107.5q0 43 -33 69t-94 26q-100 0 -207 -58z" />
    <glyph glyph-name="acute" unicode="&#xb4;" horiz-adv-x="534" 
d="M459 1544l14 -43q-123 -191 -323 -334l-95 23q124 224 174 377z" />
    <glyph glyph-name="paragraph" unicode="&#xb6;" horiz-adv-x="1230" 
d="M479 -205q336 0 336 426v1092h-147v-867h-54q-146 0 -263 57.5t-186 168.5t-69 258q0 151 74 261t196 164t277 54h342v-1210q0 -254 -133.5 -400.5t-366.5 -146.5q-153 0 -288 53l14 150q151 -60 268 -60z" />
    <glyph glyph-name="periodcentered" unicode="&#xb7;" horiz-adv-x="638" 
d="M483 567q0 -70 -49 -118t-119 -48q-68 0 -113.5 45.5t-45.5 112.5q0 68 51 117t121 49q67 0 111 -44t44 -114z" />
    <glyph glyph-name="cedilla" unicode="&#xb8;" horiz-adv-x="618" 
d="M506 -279q0 -56 -34.5 -98t-93 -66t-124 -36.5t-139.5 -14.5l2 93q95 11 147.5 40t52.5 74q0 73 -145 76l-29 47l66 219l139 -2l-53 -164q91 -12 151 -52t60 -116z" />
    <glyph glyph-name="onesuperior" unicode="&#xb9;" horiz-adv-x="563" 
d="M215 1384h-2l-135 -18l-29 111l338 92l23 -21v-827h-197v496q0 118 2 167z" />
    <glyph glyph-name="ordmasculine" unicode="&#xba;" horiz-adv-x="968" 
d="M874 997q0 -134 -56.5 -231t-146 -142.5t-198.5 -45.5q-167 0 -272 106.5t-105 294.5q0 198 114 312t286 114q169 0 273.5 -110.5t104.5 -297.5zM315 997q0 -140 42.5 -218.5t127.5 -78.5q83 0 125.5 75.5t42.5 209.5q0 141 -41.5 219t-126.5 78q-83 0 -126.5 -72
t-43.5 -213z" />
    <glyph glyph-name="guillemetright" unicode="&#xbb;" horiz-adv-x="989" 
d="M895 565q-167 -140 -350 -385l-66 29q64 196 205 391q-141 195 -205 391l66 29q183 -245 350 -385v-70zM498 565q-165 -137 -351 -385l-67 29q70 206 207 391q-137 185 -207 391l67 29q186 -248 351 -385v-70z" />
    <glyph glyph-name="onequarter" unicode="&#xbc;" horiz-adv-x="1781" 
d="M276 1262h-2l-135 -19l-28 111l338 92l22 -21v-827h-197v496q0 119 2 168zM1309 1434l-871 -1454h-112l868 1454h115zM938 293l340 522l217 12l23 -18v-500q39 2 118 10l-14 -145h-104v-194h-187v194h-370zM1100 309v-4q16 0 89.5 1t141.5 1v158q0 155 8 225h-4z" />
    <glyph glyph-name="onehalf" unicode="&#xbd;" horiz-adv-x="1824" 
d="M276 1262h-2l-135 -19l-28 111l338 92l22 -21v-827h-197v496q0 119 2 168zM1309 1434l-871 -1454h-112l868 1454h115zM1092 -20l-23 129q391 262 391 444q0 64 -39 102.5t-106 38.5q-107 0 -225 -88l-19 146q53 31 132.5 53t158.5 22q132 0 216.5 -64t84.5 -169
q0 -64 -36 -132.5t-98 -129.5t-129.5 -112t-144.5 -97h191q110 0 215 12l-14 -155h-555z" />
    <glyph glyph-name="threequarters" unicode="&#xbe;" horiz-adv-x="1927" 
d="M154 1376q50 27 127 47.5t147 20.5q118 0 195 -52t77 -135q0 -69 -55.5 -129t-148.5 -86q114 -14 180.5 -70t66.5 -143q0 -110 -103 -179.5t-269 -69.5q-130 0 -228 28l19 123q96 -29 200 -29q79 0 129 31.5t50 87.5q0 115 -209 115q-33 0 -107 -8v123q120 14 196.5 57.5
t76.5 108.5q0 43 -33 68.5t-94 25.5q-100 0 -207 -58zM1452 1434l-870 -1454h-113l868 1454h115zM1083 293l340 522l217 12l21 -18v-500q45 2 121 10l-15 -145h-106v-194h-186v194h-369zM1243 309v-4q17 0 91 1t141 1v158q0 155 8 225h-4z" />
    <glyph glyph-name="questiondown" unicode="&#xbf;" horiz-adv-x="976" 
d="M410 879q0 66 44 113.5t111 47.5q60 0 98.5 -39t38.5 -96q0 -65 -48 -113.5t-115 -48.5q-57 0 -93 38t-36 98zM496 571l147 7q29 -56 29 -115q0 -49 -24.5 -94t-61.5 -78.5t-80 -71.5t-80 -72t-61.5 -82t-24.5 -100q0 -84 55.5 -135t147.5 -51q77 0 159.5 40.5
t139.5 114.5l98 -135q-74 -96 -189 -152.5t-259 -56.5q-191 0 -303.5 94.5t-112.5 245.5q0 65 22.5 123.5t58.5 102t79.5 82.5t86.5 70.5t79 59.5t58.5 56.5t22.5 54.5q0 36 -4 76z" />
    <glyph glyph-name="Agrave" unicode="&#xc0;" horiz-adv-x="1290" 
d="M915 1585q-314 19 -546 141l-15 43l158 138q173 -132 424 -256zM281 0h-250l381 1198q41 121 61 217l301 12l41 -34l445 -1393h-265l-108 340h-498zM512 731l-63 -201h376l-61 199q-100 341 -121 457h-8q-46 -196 -123 -455z" />
    <glyph glyph-name="Aacute" unicode="&#xc1;" horiz-adv-x="1290" 
d="M936 1769l-12 -43q-235 -122 -549 -141l-21 66q249 123 426 256zM281 0h-250l381 1198q41 121 61 217l301 12l41 -34l445 -1393h-265l-108 340h-498zM512 731l-63 -201h376l-61 199q-100 341 -121 457h-8q-46 -196 -123 -455z" />
    <glyph glyph-name="Acircumflex" unicode="&#xc2;" horiz-adv-x="1290" 
d="M377 1579l-70 61q119 103 242 244l180 17q124 -144 252 -261l-68 -61q-105 49 -274 152q-160 -102 -262 -152zM281 0h-250l381 1198q41 121 61 217l301 12l41 -34l445 -1393h-265l-108 340h-498zM512 731l-63 -201h376l-61 199q-100 341 -121 457h-8q-46 -196 -123 -455z
" />
    <glyph glyph-name="Atilde" unicode="&#xc3;" horiz-adv-x="1290" 
d="M500 1888q54 0 109 -28.5t105.5 -57t92.5 -28.5t70.5 24.5t56.5 73.5l67 -10q-5 -108 -57.5 -185.5t-146.5 -77.5q-41 0 -87.5 18t-81 39.5t-75.5 39.5t-72 18q-71 0 -125 -98l-67 10q2 48 14.5 92.5t36.5 83.5t65 62.5t95 23.5zM281 0h-250l381 1198q41 121 61 217
l301 12l41 -34l445 -1393h-265l-108 340h-498zM512 731l-63 -201h376l-61 199q-100 341 -121 457h-8q-46 -196 -123 -455z" />
    <glyph glyph-name="Adieresis" unicode="&#xc4;" horiz-adv-x="1290" 
d="M1016 1755q0 -64 -44 -107.5t-112 -43.5q-59 0 -95 34t-36 86q0 61 46.5 105.5t111.5 44.5q56 0 92.5 -33.5t36.5 -85.5zM563 1755q0 -64 -43.5 -107.5t-111.5 -43.5q-59 0 -95.5 34t-36.5 86q0 61 46.5 105.5t111.5 44.5q56 0 92.5 -33.5t36.5 -85.5zM281 0h-250
l381 1198q41 121 61 217l301 12l41 -34l445 -1393h-265l-108 340h-498zM512 731l-63 -201h376l-61 199q-100 341 -121 457h-8q-46 -196 -123 -455z" />
    <glyph glyph-name="Aring" unicode="&#xc5;" horiz-adv-x="1290" 
d="M866 1763q0 -90 -68.5 -153.5t-166.5 -63.5q-89 0 -148 53t-59 130q0 87 72.5 151t171.5 64q86 0 142 -51.5t56 -129.5zM541 1737q0 -42 27.5 -70.5t70.5 -28.5q45 0 78 34.5t33 80.5q0 45 -25.5 72.5t-67.5 27.5q-49 0 -82.5 -34t-33.5 -82zM281 0h-250l381 1198
q41 121 61 217l301 12l41 -34l445 -1393h-265l-108 340h-498zM512 731l-63 -201h376l-61 199q-100 341 -121 457h-8q-46 -196 -123 -455z" />
    <glyph glyph-name="AE" unicode="&#xc6;" horiz-adv-x="1800" 
d="M281 0h-250l534 1198q28 61 94 211h879l29 -29l-4 -176l-541 13l55 -433l457 9l-6 -191l-428 10l55 -422l578 15v-205h-818l-41 340h-444zM602 731l-88 -201h336l-25 199q-24 232 -32 457h-9q-61 -169 -182 -455z" />
    <glyph glyph-name="Ccedilla" unicode="&#xc7;" horiz-adv-x="1193" 
d="M961 -287q0 -56 -35 -98t-94 -66t-124.5 -36.5t-138.5 -14.5v92q96 11 149.5 40.5t53.5 74.5q0 73 -145 76l-29 47l47 158q-253 28 -398 211.5t-145 488.5q0 166 49 306t135 235.5t207 149t263 53.5q214 0 362 -87l-51 -227q-150 96 -307 96q-172 0 -278.5 -138
t-106.5 -378q0 -229 105.5 -364t293.5 -135q175 0 324 94l30 -215q-145 -88 -346 -94l-32 -101q91 -12 151 -52t60 -116z" />
    <glyph glyph-name="Egrave" unicode="&#xc8;" horiz-adv-x="1099" 
d="M868 1585q-314 19 -546 141l-15 43l158 138q173 -132 424 -256zM1032 205v-205h-858v1069q0 208 -18 340h833l29 -29l-6 -176l-576 15v-435l482 9l-7 -191l-475 10v-422z" />
    <glyph glyph-name="Eacute" unicode="&#xc9;" horiz-adv-x="1099" 
d="M889 1769l-12 -43q-235 -122 -549 -141l-21 66q243 118 426 256zM1032 205v-205h-858v1069q0 208 -18 340h833l29 -29l-6 -176l-576 15v-435l482 9l-7 -191l-475 10v-422z" />
    <glyph glyph-name="Ecircumflex" unicode="&#xca;" horiz-adv-x="1099" 
d="M330 1579l-70 61q119 103 242 244l180 17q127 -147 254 -261l-70 -61q-113 53 -272 152q-154 -98 -264 -152zM1032 205v-205h-858v1069q0 208 -18 340h833l29 -29l-6 -176l-576 15v-435l482 9l-7 -191l-475 10v-422z" />
    <glyph glyph-name="Edieresis" unicode="&#xcb;" horiz-adv-x="1099" 
d="M969 1755q0 -64 -44 -107.5t-112 -43.5q-59 0 -95 34t-36 86q0 61 46.5 105.5t113.5 44.5q54 0 90.5 -33.5t36.5 -85.5zM516 1755q0 -64 -44 -107.5t-112 -43.5q-59 0 -95 34t-36 86q0 61 46.5 105.5t113.5 44.5q54 0 90.5 -33.5t36.5 -85.5zM1032 205v-205h-858v1069
q0 208 -18 340h833l29 -29l-6 -176l-576 15v-435l482 9l-7 -191l-475 10v-422z" />
    <glyph glyph-name="Igrave" unicode="&#xcc;" horiz-adv-x="610" 
d="M563 1585q-315 19 -547 141l-14 43l158 138q173 -132 424 -256zM436 0h-262v1059q0 194 -18 350l252 21l28 -29v-1401z" />
    <glyph glyph-name="Iacute" unicode="&#xcd;" horiz-adv-x="610" 
d="M584 1769l-13 -43q-236 -122 -548 -141l-21 66q243 118 426 256zM436 0h-262v1059q0 194 -18 350l252 21l28 -29v-1401z" />
    <glyph glyph-name="Icircumflex" unicode="&#xce;" horiz-adv-x="610" 
d="M25 1579l-70 61q119 103 242 244l180 17q127 -147 254 -261l-70 -61q-113 53 -272 152q-154 -98 -264 -152zM436 0h-262v1059q0 194 -18 350l252 21l28 -29v-1401z" />
    <glyph glyph-name="Idieresis" unicode="&#xcf;" horiz-adv-x="610" 
d="M664 1755q0 -64 -44 -107.5t-112 -43.5q-59 0 -95 34t-36 86q0 61 46.5 105.5t113.5 44.5q54 0 90.5 -33.5t36.5 -85.5zM211 1755q0 -64 -44 -107.5t-112 -43.5q-59 0 -95 34t-36 86q0 61 46.5 105.5t113.5 44.5q54 0 90.5 -33.5t36.5 -85.5zM436 0h-262v1059
q0 194 -18 350l252 21l28 -29v-1401z" />
    <glyph glyph-name="Eth" unicode="&#xd0;" horiz-adv-x="1404" 
d="M1303 713q0 -168 -54.5 -303.5t-150.5 -225t-227.5 -137t-286.5 -47.5h-410v637h-160v135h160v297q0 208 -18 340h460q311 0 499 -187t188 -509zM784 637h-348v-447h166q215 0 321.5 136t106.5 374q0 233 -111 376t-319 143h-164v-447h348v-135z" />
    <glyph glyph-name="Ntilde" unicode="&#xd1;" horiz-adv-x="1445" 
d="M555 1888q54 0 109.5 -28.5t105.5 -57t92 -28.5t70.5 24.5t56.5 73.5l68 -10q-3 -107 -56 -185t-149 -78q-41 0 -87 18t-80 39.5t-75 39.5t-73 18q-72 0 -123 -98l-68 10q2 48 14 92.5t35.5 83.5t64.5 62.5t95 23.5zM758 858q185 -303 278 -512h6q-13 130 -16.5 242.5
t-3.5 398.5q0 228 -18 422l241 18l29 -28v-1399h-254q-69 114 -181 302.5t-157 262.5q-182 295 -272 486h-4q18 -166 18 -441v-610h-250v1069q0 184 -18 340l266 16q267 -452 336 -567z" />
    <glyph glyph-name="Ograve" unicode="&#xd2;" horiz-adv-x="1447" 
d="M1004 1573q-314 19 -549 141l-13 43l156 137q173 -133 426 -256zM1346 709q0 -174 -50 -313.5t-137 -229.5t-202 -138t-248 -48q-132 0 -243.5 48t-192 136t-126 221.5t-45.5 296.5q0 169 48.5 310t133.5 236.5t202.5 148.5t254.5 53q275 0 440 -196t165 -525zM375 707
q0 -153 38.5 -271t119 -188t192.5 -70q170 0 259 140t89 384q0 117 -20.5 212t-61 166.5t-106.5 111t-152 39.5q-167 0 -262.5 -141.5t-95.5 -382.5z" />
    <glyph glyph-name="Oacute" unicode="&#xd3;" horiz-adv-x="1447" 
d="M1024 1757l-14 -43q-232 -122 -547 -141l-21 65q261 129 424 256zM1346 709q0 -174 -50 -313.5t-137 -229.5t-202 -138t-248 -48q-132 0 -243.5 48t-192 136t-126 221.5t-45.5 296.5q0 169 48.5 310t133.5 236.5t202.5 148.5t254.5 53q275 0 440 -196t165 -525zM375 707
q0 -153 38.5 -271t119 -188t192.5 -70q170 0 259 140t89 384q0 117 -20.5 212t-61 166.5t-106.5 111t-152 39.5q-167 0 -262.5 -141.5t-95.5 -382.5z" />
    <glyph glyph-name="Ocircumflex" unicode="&#xd4;" horiz-adv-x="1447" 
d="M463 1567l-70 61q127 111 244 244l180 16q106 -127 252 -260l-70 -61q-128 61 -272 151q-147 -94 -264 -151zM1346 709q0 -174 -50 -313.5t-137 -229.5t-202 -138t-248 -48q-132 0 -243.5 48t-192 136t-126 221.5t-45.5 296.5q0 169 48.5 310t133.5 236.5t202.5 148.5
t254.5 53q275 0 440 -196t165 -525zM375 707q0 -153 38.5 -271t119 -188t192.5 -70q170 0 259 140t89 384q0 117 -20.5 212t-61 166.5t-106.5 111t-152 39.5q-167 0 -262.5 -141.5t-95.5 -382.5z" />
    <glyph glyph-name="Otilde" unicode="&#xd5;" horiz-adv-x="1447" 
d="M586 1876q43 0 88 -18t76 -39.5t70 -39.5t73 -18q42 0 70 25t57 74l67 -11q-3 -68 -24.5 -125.5t-68.5 -97t-111 -39.5q-41 0 -87 18t-80.5 39.5t-75.5 39.5t-73 18q-69 0 -125 -98l-67 10q2 48 14.5 92.5t36.5 83.5t65 62.5t95 23.5zM1346 709q0 -174 -50 -313.5
t-137 -229.5t-202 -138t-248 -48q-132 0 -243.5 48t-192 136t-126 221.5t-45.5 296.5q0 169 48.5 310t133.5 236.5t202.5 148.5t254.5 53q275 0 440 -196t165 -525zM375 707q0 -153 38.5 -271t119 -188t192.5 -70q170 0 259 140t89 384q0 117 -20.5 212t-61 166.5
t-106.5 111t-152 39.5q-167 0 -262.5 -141.5t-95.5 -382.5z" />
    <glyph glyph-name="Odieresis" unicode="&#xd6;" horiz-adv-x="1447" 
d="M1102 1743q0 -64 -44 -108t-112 -44q-58 0 -94.5 34.5t-36.5 86.5q0 61 46.5 105.5t113.5 44.5q56 0 91.5 -33.5t35.5 -85.5zM649 1743q0 -64 -43.5 -108t-111.5 -44q-58 0 -95 34.5t-37 86.5q0 61 46.5 105.5t113.5 44.5q56 0 91.5 -33.5t35.5 -85.5zM1346 709
q0 -174 -50 -313.5t-137 -229.5t-202 -138t-248 -48q-132 0 -243.5 48t-192 136t-126 221.5t-45.5 296.5q0 169 48.5 310t133.5 236.5t202.5 148.5t254.5 53q275 0 440 -196t165 -525zM375 707q0 -153 38.5 -271t119 -188t192.5 -70q170 0 259 140t89 384q0 117 -20.5 212
t-61 166.5t-106.5 111t-152 39.5q-167 0 -262.5 -141.5t-95.5 -382.5z" />
    <glyph glyph-name="multiply" unicode="&#xd7;" 
d="M932 285l-320 323l-323 -323l-99 100l324 324l-319 325l94 94q188 -184 323 -321l322 323l100 -100l-323 -323q61 -60 169 -169.5t152 -152.5l-2 -20z" />
    <glyph glyph-name="Oslash" unicode="&#xd8;" horiz-adv-x="1447" 
d="M1346 709q0 -174 -50 -313.5t-137 -229.5t-202 -138t-248 -48q-247 0 -406 153l-133 -151l-100 88l147 168q-115 179 -115 444q0 169 48.5 310t133.5 236.5t202.5 148.5t254.5 53q229 0 387 -142l123 142l103 -87l-137 -157q129 -189 129 -477zM375 707q0 -144 33 -250
l565 651q-87 123 -240 123q-167 0 -262.5 -141.5t-95.5 -382.5zM1073 702q0 160 -37 275l-569 -655q94 -144 258 -144q170 0 259 140t89 384z" />
    <glyph glyph-name="Ugrave" unicode="&#xd9;" horiz-adv-x="1363" 
d="M952 1573q-314 19 -549 141l-12 43l158 137q163 -127 424 -256zM150 1061q0 169 -21 350l258 19l27 -27v-909q0 -151 74.5 -231.5t201.5 -80.5q126 0 199.5 80.5t73.5 231.5v616q0 157 -21 301l272 16v-952q0 -120 -42.5 -216t-116.5 -156t-171 -91.5t-210 -31.5
q-112 0 -206.5 31.5t-166 92.5t-111.5 156t-40 215v586z" />
    <glyph glyph-name="Uacute" unicode="&#xda;" horiz-adv-x="1363" 
d="M973 1757l-12 -43q-235 -122 -549 -141l-21 65q261 129 424 256zM150 1061q0 169 -21 350l258 19l27 -27v-909q0 -151 74.5 -231.5t201.5 -80.5q126 0 199.5 80.5t73.5 231.5v616q0 157 -21 301l272 16v-952q0 -120 -42.5 -216t-116.5 -156t-171 -91.5t-210 -31.5
q-112 0 -206.5 31.5t-166 92.5t-111.5 156t-40 215v586z" />
    <glyph glyph-name="Ucircumflex" unicode="&#xdb;" horiz-adv-x="1363" 
d="M412 1567l-68 61q119 103 242 244l180 16q106 -127 252 -260l-68 -61q-112 53 -274 151q-154 -98 -264 -151zM150 1061q0 169 -21 350l258 19l27 -27v-909q0 -151 74.5 -231.5t201.5 -80.5q126 0 199.5 80.5t73.5 231.5v616q0 157 -21 301l272 16v-952q0 -120 -42.5 -216
t-116.5 -156t-171 -91.5t-210 -31.5q-112 0 -206.5 31.5t-166 92.5t-111.5 156t-40 215v586z" />
    <glyph glyph-name="Udieresis" unicode="&#xdc;" horiz-adv-x="1363" 
d="M1051 1743q0 -64 -44 -108t-112 -44q-58 0 -93.5 34.5t-35.5 86.5q0 61 46.5 105.5t111.5 44.5q56 0 91.5 -33.5t35.5 -85.5zM598 1743q0 -64 -43.5 -108t-112.5 -44q-58 0 -93.5 34.5t-35.5 86.5q0 61 46.5 105.5t111.5 44.5q56 0 91.5 -33.5t35.5 -85.5zM150 1061
q0 169 -21 350l258 19l27 -27v-909q0 -151 74.5 -231.5t201.5 -80.5q126 0 199.5 80.5t73.5 231.5v616q0 157 -21 301l272 16v-952q0 -120 -42.5 -216t-116.5 -156t-171 -91.5t-210 -31.5q-112 0 -206.5 31.5t-166 92.5t-111.5 156t-40 215v586z" />
    <glyph glyph-name="Yacute" unicode="&#xdd;" horiz-adv-x="1169" 
d="M905 1757l-14 -43q-232 -122 -547 -141l-20 65q261 129 424 256zM453 475l-424 928l280 27l187 -451q80 -204 110 -299h6q60 158 119 299l182 451l213 -17l17 -29l-426 -913v-471h-264v475z" />
    <glyph glyph-name="Thorn" unicode="&#xde;" horiz-adv-x="1189" 
d="M436 0h-262v1069q0 208 -18 340h280v-215h185q236 0 375 -125t139 -336q0 -150 -73 -259t-195.5 -162.5t-280.5 -53.5h-150v-258zM567 1006h-131v-560h129q150 0 223.5 72t73.5 205q0 130 -72 206.5t-223 76.5z" />
    <glyph glyph-name="germandbls" unicode="&#xdf;" horiz-adv-x="1316" 
d="M195 887l-150 8v94l150 31v33q0 129 36 226t100.5 156t149 88t187.5 29q188 0 300.5 -89.5t112.5 -235.5q0 -114 -65 -203.5t-172 -138.5q169 -61 269.5 -190.5t100.5 -299.5q0 -187 -117 -301t-311 -114q-126 0 -215 34v166q93 -35 170 -35q110 0 168 70t58 178
q0 136 -93.5 248.5t-263.5 169.5v121q232 94 232 276q0 81 -48.5 136t-134.5 55q-94 0 -151 -72t-57 -229v-1098h-256v887z" />
    <glyph glyph-name="agrave" unicode="&#xe0;" horiz-adv-x="1052" 
d="M623 1169q-198 142 -324 334l14 43l232 25q56 -172 174 -377zM889 281q0 -153 45 -281l-215 -20q-34 56 -55 141h-7q-44 -60 -126 -100.5t-179 -40.5q-123 0 -195.5 65.5t-72.5 179.5q0 85 42.5 150t119.5 105.5t175 62t218 26.5v99q0 182 -190 182q-156 0 -310 -90
l-14 201q79 33 184 56t203 23q189 0 286 -87.5t97 -250.5q0 -74 -3 -218.5t-3 -202.5zM336 268q0 -58 35.5 -96.5t97.5 -38.5q93 0 170 70v276q-133 -11 -218 -65t-85 -146z" />
    <glyph glyph-name="aacute" unicode="&#xe1;" horiz-adv-x="1052" 
d="M705 1544l14 -43q-121 -187 -326 -334l-94 23q119 209 174 377zM889 281q0 -153 45 -281l-215 -20q-34 56 -55 141h-7q-44 -60 -126 -100.5t-179 -40.5q-123 0 -195.5 65.5t-72.5 179.5q0 85 42.5 150t119.5 105.5t175 62t218 26.5v99q0 182 -190 182q-156 0 -310 -90
l-14 201q79 33 184 56t203 23q189 0 286 -87.5t97 -250.5q0 -74 -3 -218.5t-3 -202.5zM336 268q0 -58 35.5 -96.5t97.5 -38.5q93 0 170 70v276q-133 -11 -218 -65t-85 -146z" />
    <glyph glyph-name="acircumflex" unicode="&#xe2;" horiz-adv-x="1052" 
d="M279 1153l-80 57q105 138 223 328l180 16q102 -172 234 -344l-82 -57q-95 68 -242 215q-150 -154 -233 -215zM889 281q0 -153 45 -281l-215 -20q-34 56 -55 141h-7q-44 -60 -126 -100.5t-179 -40.5q-123 0 -195.5 65.5t-72.5 179.5q0 85 42.5 150t119.5 105.5t175 62
t218 26.5v99q0 182 -190 182q-156 0 -310 -90l-14 201q79 33 184 56t203 23q189 0 286 -87.5t97 -250.5q0 -74 -3 -218.5t-3 -202.5zM336 268q0 -58 35.5 -96.5t97.5 -38.5q93 0 170 70v276q-133 -11 -218 -65t-85 -146z" />
    <glyph glyph-name="atilde" unicode="&#xe3;" horiz-adv-x="1052" 
d="M360 1520q42 0 87 -18.5t77 -40t70.5 -40t69.5 -18.5q38 0 62.5 24t51.5 74l76 -10q-4 -73 -25.5 -135.5t-67.5 -107t-108 -44.5q-39 0 -85 18.5t-80.5 40t-75 40t-68.5 18.5q-64 0 -113 -100l-73 12q3 53 15.5 101.5t35.5 91.5t62 68.5t89 25.5zM889 281q0 -153 45 -281
l-215 -20q-34 56 -55 141h-7q-44 -60 -126 -100.5t-179 -40.5q-123 0 -195.5 65.5t-72.5 179.5q0 85 42.5 150t119.5 105.5t175 62t218 26.5v99q0 182 -190 182q-156 0 -310 -90l-14 201q79 33 184 56t203 23q189 0 286 -87.5t97 -250.5q0 -74 -3 -218.5t-3 -202.5zM336 268
q0 -58 35.5 -96.5t97.5 -38.5q93 0 170 70v276q-133 -11 -218 -65t-85 -146z" />
    <glyph glyph-name="adieresis" unicode="&#xe4;" horiz-adv-x="1052" 
d="M430 1376q0 -68 -45 -117t-113 -49q-60 0 -97.5 40.5t-37.5 97.5q0 66 48.5 115.5t115.5 49.5q57 0 93 -38t36 -99zM879 1376q0 -68 -45 -117t-113 -49q-60 0 -97.5 40.5t-37.5 97.5q0 66 48.5 115.5t115.5 49.5q57 0 93 -38t36 -99zM889 281q0 -153 45 -281l-215 -20
q-34 56 -55 141h-7q-44 -60 -126 -100.5t-179 -40.5q-123 0 -195.5 65.5t-72.5 179.5q0 85 42.5 150t119.5 105.5t175 62t218 26.5v99q0 182 -190 182q-156 0 -310 -90l-14 201q79 33 184 56t203 23q189 0 286 -87.5t97 -250.5q0 -74 -3 -218.5t-3 -202.5zM336 268
q0 -58 35.5 -96.5t97.5 -38.5q93 0 170 70v276q-133 -11 -218 -65t-85 -146z" />
    <glyph glyph-name="aring" unicode="&#xe5;" horiz-adv-x="1052" 
d="M750 1382q0 -88 -69 -151.5t-167 -63.5q-88 0 -146.5 52.5t-58.5 128.5q0 89 72.5 153t169.5 64q87 0 143 -51.5t56 -131.5zM424 1358q0 -43 28 -72t72 -29q45 0 78 34.5t33 80.5t-25 73.5t-67 27.5q-49 0 -84 -34.5t-35 -80.5zM889 281q0 -153 45 -281l-215 -20
q-34 56 -55 141h-7q-44 -60 -126 -100.5t-179 -40.5q-123 0 -195.5 65.5t-72.5 179.5q0 85 42.5 150t119.5 105.5t175 62t218 26.5v99q0 182 -190 182q-156 0 -310 -90l-14 201q79 33 184 56t203 23q189 0 286 -87.5t97 -250.5q0 -74 -3 -218.5t-3 -202.5zM336 268
q0 -58 35.5 -96.5t97.5 -38.5q93 0 170 70v276q-133 -11 -218 -65t-85 -146z" />
    <glyph glyph-name="ae" unicode="&#xe6;" horiz-adv-x="1603" 
d="M1509 514l-30 -31h-574q13 -161 93 -240t212 -79q128 0 254 74l17 -170q-53 -36 -141.5 -62t-194.5 -26q-141 0 -250.5 52t-175.5 150q-57 -88 -156.5 -145t-214.5 -57q-119 0 -191.5 66t-72.5 181q0 84 42.5 148.5t119.5 105t175 62t218 26.5v99q0 182 -195 182
q-74 0 -156 -24.5t-149 -65.5l-14 201q79 33 184 56t207 23q209 0 301 -106q127 106 301 106q181 0 287 -114t106 -299q0 -76 -2 -113zM1106 887q-86 0 -142.5 -82.5t-62.5 -226.5l359 14q0 11 1 34t1 36q0 103 -40 164t-116 61zM336 268q0 -58 35.5 -96.5t97.5 -38.5
q60 0 117.5 33.5t95.5 87.5q-42 98 -45 225q-132 -11 -216.5 -65t-84.5 -146z" />
    <glyph glyph-name="ccedilla" unicode="&#xe7;" horiz-adv-x="993" 
d="M815 -287q0 -56 -34.5 -98t-93 -66t-123.5 -36.5t-138 -14.5v92q95 11 149 40.5t54 74.5q0 73 -146 76l-28 47l47 160q-184 28 -291 163t-107 349q0 246 141 393t367 147q180 0 308 -75l-58 -199q-122 84 -241 84q-116 0 -184 -85.5t-68 -240.5q0 -168 76.5 -264
t213.5 -96q106 0 230 69l16 -170q-106 -72 -266 -81l-33 -101q41 -6 76 -17t66 -30t49 -50t18 -71z" />
    <glyph glyph-name="egrave" unicode="&#xe8;" horiz-adv-x="1071" 
d="M664 1169q-198 142 -324 334l14 43l232 25q56 -172 174 -377zM977 514l-31 -31h-575q15 -161 95 -240t212 -79q128 0 254 74l16 -170q-54 -36 -142 -62t-196 -26q-231 0 -368.5 135.5t-137.5 380.5q0 124 38 227.5t103.5 172.5t153 106.5t187.5 37.5q181 0 287 -114
t106 -299q0 -76 -2 -113zM573 887q-87 0 -142.5 -82t-61.5 -227l356 14q2 23 2 74q0 99 -40 160t-114 61z" />
    <glyph glyph-name="eacute" unicode="&#xe9;" horiz-adv-x="1071" 
d="M745 1544l15 -43q-121 -187 -326 -334l-94 23q119 209 174 377zM977 514l-31 -31h-575q15 -161 95 -240t212 -79q128 0 254 74l16 -170q-54 -36 -142 -62t-196 -26q-231 0 -368.5 135.5t-137.5 380.5q0 124 38 227.5t103.5 172.5t153 106.5t187.5 37.5q181 0 287 -114
t106 -299q0 -76 -2 -113zM573 887q-87 0 -142.5 -82t-61.5 -227l356 14q2 23 2 74q0 99 -40 160t-114 61z" />
    <glyph glyph-name="ecircumflex" unicode="&#xea;" horiz-adv-x="1071" 
d="M319 1153l-79 57q105 138 223 328l180 16q102 -172 234 -344l-82 -57q-95 68 -242 215q-148 -152 -234 -215zM977 514l-31 -31h-575q15 -161 95 -240t212 -79q128 0 254 74l16 -170q-54 -36 -142 -62t-196 -26q-231 0 -368.5 135.5t-137.5 380.5q0 124 38 227.5
t103.5 172.5t153 106.5t187.5 37.5q181 0 287 -114t106 -299q0 -76 -2 -113zM573 887q-87 0 -142.5 -82t-61.5 -227l356 14q2 23 2 74q0 99 -40 160t-114 61z" />
    <glyph glyph-name="edieresis" unicode="&#xeb;" horiz-adv-x="1071" 
d="M471 1376q0 -68 -45 -117t-113 -49q-60 0 -97.5 40.5t-37.5 97.5q0 66 48.5 115.5t115.5 49.5q57 0 93 -38t36 -99zM920 1376q0 -68 -45 -117t-113 -49q-60 0 -97.5 40.5t-37.5 97.5q0 66 48.5 115.5t115.5 49.5q57 0 93 -38t36 -99zM977 514l-31 -31h-575
q15 -161 95 -240t212 -79q128 0 254 74l16 -170q-54 -36 -142 -62t-196 -26q-231 0 -368.5 135.5t-137.5 380.5q0 124 38 227.5t103.5 172.5t153 106.5t187.5 37.5q181 0 287 -114t106 -299q0 -76 -2 -113zM573 887q-87 0 -142.5 -82t-61.5 -227l356 14q2 23 2 74
q0 99 -40 160t-114 61z" />
    <glyph glyph-name="igrave" unicode="&#xec;" horiz-adv-x="575" 
d="M399 1169q-196 141 -323 334l14 43l229 25q50 -154 175 -377zM158 0v670q0 175 -25 340l252 30l29 -28v-1012h-256z" />
    <glyph glyph-name="iacute" unicode="&#xed;" horiz-adv-x="575" 
d="M479 1544l15 -43q-122 -189 -324 -334l-94 23q124 224 174 377zM158 0v670q0 175 -25 340l252 30l29 -28v-1012h-256z" />
    <glyph glyph-name="icircumflex" unicode="&#xee;" horiz-adv-x="575" 
d="M119 1169l-88 37q71 166 127 344l241 17q59 -175 138 -361l-88 -37q-75 78 -170 222q-74 -125 -160 -222zM158 0v670q0 175 -25 340l252 30l29 -28v-1012h-256z" />
    <glyph glyph-name="idieresis" unicode="&#xef;" horiz-adv-x="575" 
d="M244 1380q0 -68 -41 -117t-103 -49q-56 0 -91.5 40.5t-35.5 97.5q0 66 46 116t106 50q53 0 86 -38.5t33 -99.5zM594 1380q0 -67 -41.5 -116.5t-103.5 -49.5q-54 0 -88.5 40.5t-34.5 97.5q0 66 43.5 116t103.5 50q54 0 87.5 -38t33.5 -100zM158 0v670q0 175 -25 340
l252 30l29 -28v-1012h-256z" />
    <glyph glyph-name="eth" unicode="&#xf0;" horiz-adv-x="1198" 
d="M598 -20q-203 0 -333 139t-130 383q0 230 115.5 360.5t300.5 130.5q150 0 242 -92q-54 164 -181 301l-211 -131l-71 111l184 114q-68 57 -162 115l86 141q144 -61 252 -145l221 139l72 -112l-188 -117q142 -144 219.5 -335.5t77.5 -414.5q0 -147 -39.5 -261t-108 -184
t-156.5 -106t-190 -36zM614 829q-98 0 -156.5 -84.5t-58.5 -250.5q0 -155 53.5 -245.5t157.5 -90.5q101 0 158 88t57 246q0 162 -55.5 249.5t-155.5 87.5z" />
    <glyph glyph-name="ntilde" unicode="&#xf1;" horiz-adv-x="1181" 
d="M430 1520q41 0 85.5 -18.5t76 -40t70 -40t69.5 -18.5q38 0 64 24.5t53 73.5l74 -10q-3 -72 -25 -135.5t-68 -107.5t-108 -44q-39 0 -85 18.5t-80.5 40t-75 40t-68.5 18.5q-64 0 -113 -100l-74 12q3 53 15.5 101.5t36 91.5t63 68.5t90.5 25.5zM418 0h-256v672
q0 152 -41 321l239 47q34 -90 46 -149q155 149 333 149q132 0 206.5 -82t74.5 -231v-727h-258v678q0 184 -150 184q-92 0 -194 -76v-786z" />
    <glyph glyph-name="ograve" unicode="&#xf2;" horiz-adv-x="1153" 
d="M692 1169q-200 143 -325 334l14 43l231 25q56 -172 174 -377zM1051 516q0 -130 -39.5 -233.5t-107.5 -168.5t-155 -99.5t-186 -34.5q-202 0 -330.5 137.5t-128.5 378.5q0 127 38 231t104.5 172t154.5 104.5t189 36.5q206 0 333.5 -142t127.5 -382zM369 516
q0 -180 52 -281.5t157 -101.5q101 0 153.5 97t52.5 272q0 385 -206 385q-100 0 -154.5 -94t-54.5 -277z" />
    <glyph glyph-name="oacute" unicode="&#xf3;" horiz-adv-x="1153" 
d="M772 1544l14 -43q-123 -191 -323 -334l-96 23q119 209 174 377zM1051 516q0 -130 -39.5 -233.5t-107.5 -168.5t-155 -99.5t-186 -34.5q-202 0 -330.5 137.5t-128.5 378.5q0 127 38 231t104.5 172t154.5 104.5t189 36.5q206 0 333.5 -142t127.5 -382zM369 516
q0 -180 52 -281.5t157 -101.5q101 0 153.5 97t52.5 272q0 385 -206 385q-100 0 -154.5 -94t-54.5 -277z" />
    <glyph glyph-name="ocircumflex" unicode="&#xf4;" horiz-adv-x="1153" 
d="M348 1153l-82 57q122 161 223 328l181 16q120 -197 233 -344l-82 -57q-97 71 -241 215q-148 -152 -232 -215zM1051 516q0 -130 -39.5 -233.5t-107.5 -168.5t-155 -99.5t-186 -34.5q-202 0 -330.5 137.5t-128.5 378.5q0 127 38 231t104.5 172t154.5 104.5t189 36.5
q206 0 333.5 -142t127.5 -382zM369 516q0 -180 52 -281.5t157 -101.5q101 0 153.5 97t52.5 272q0 385 -206 385q-100 0 -154.5 -94t-54.5 -277z" />
    <glyph glyph-name="otilde" unicode="&#xf5;" horiz-adv-x="1153" 
d="M430 1520q41 0 85.5 -18.5t76 -40t70 -40t69.5 -18.5q38 0 64 24.5t53 73.5l74 -10q-3 -72 -25 -135.5t-68 -107.5t-108 -44q-39 0 -85 18.5t-80.5 40t-75 40t-68.5 18.5q-64 0 -113 -100l-74 12q3 53 15.5 101.5t36 91.5t63 68.5t90.5 25.5zM1051 516
q0 -130 -39.5 -233.5t-107.5 -168.5t-155 -99.5t-186 -34.5q-202 0 -330.5 137.5t-128.5 378.5q0 127 38 231t104.5 172t154.5 104.5t189 36.5q206 0 333.5 -142t127.5 -382zM369 516q0 -180 52 -281.5t157 -101.5q101 0 153.5 97t52.5 272q0 385 -206 385
q-100 0 -154.5 -94t-54.5 -277z" />
    <glyph glyph-name="odieresis" unicode="&#xf6;" horiz-adv-x="1153" 
d="M498 1376q0 -67 -45 -116.5t-111 -49.5q-61 0 -99 40.5t-38 97.5q0 66 49 115.5t115 49.5q57 0 93 -38t36 -99zM946 1376q0 -67 -44.5 -116.5t-110.5 -49.5q-61 0 -99.5 40.5t-38.5 97.5q0 66 49 115.5t115 49.5q57 0 93 -38t36 -99zM1051 516q0 -130 -39.5 -233.5
t-107.5 -168.5t-155 -99.5t-186 -34.5q-202 0 -330.5 137.5t-128.5 378.5q0 127 38 231t104.5 172t154.5 104.5t189 36.5q206 0 333.5 -142t127.5 -382zM369 516q0 -180 52 -281.5t157 -101.5q101 0 153.5 97t52.5 272q0 385 -206 385q-100 0 -154.5 -94t-54.5 -277z" />
    <glyph glyph-name="divide" unicode="&#xf7;" 
d="M743 1108q0 -62 -41.5 -104.5t-103.5 -42.5q-52 0 -84.5 34t-32.5 84q0 60 43.5 104t104.5 44q48 0 81 -33.5t33 -85.5zM1063 641h-922v133q348 10 924 10l14 -14zM745 346q0 -62 -41.5 -104.5t-103.5 -42.5q-52 0 -84.5 34t-32.5 84q0 60 43.5 104t104.5 44
q48 0 81 -33.5t33 -85.5z" />
    <glyph glyph-name="oslash" unicode="&#xf8;" horiz-adv-x="1153" 
d="M1051 516q0 -130 -39.5 -233.5t-107.5 -168.5t-155 -99.5t-186 -34.5q-177 0 -299 104l-110 -119l-93 88l121 129q-78 131 -78 314q0 127 38 231t104.5 172t154.5 104.5t189 36.5q179 0 295 -104l112 119l95 -86l-123 -131q82 -135 82 -322zM369 516q0 -75 8 -127
l360 389q-51 109 -159 109q-100 0 -154.5 -94t-54.5 -277zM784 502q0 72 -6 131l-362 -387q52 -113 162 -113q101 0 153.5 97t52.5 272z" />
    <glyph glyph-name="ugrave" unicode="&#xf9;" horiz-adv-x="1165" 
d="M698 1169q-196 141 -323 334l14 43l232 25q56 -172 174 -377zM158 668q0 151 -23 340l250 32l29 -28v-668q0 -170 143 -170q93 0 186 72v774l256 20v-761q0 -149 35 -277l-213 -22q-30 65 -53 151h-8q-145 -151 -324 -151q-129 0 -203.5 76t-74.5 208v404z" />
    <glyph glyph-name="uacute" unicode="&#xfa;" horiz-adv-x="1165" 
d="M778 1544l17 -43q-121 -187 -326 -334l-94 23q119 209 174 377zM158 668q0 151 -23 340l250 32l29 -28v-668q0 -170 143 -170q93 0 186 72v774l256 20v-761q0 -149 35 -277l-213 -22q-30 65 -53 151h-8q-145 -151 -324 -151q-129 0 -203.5 76t-74.5 208v404z" />
    <glyph glyph-name="ucircumflex" unicode="&#xfb;" horiz-adv-x="1165" 
d="M354 1153l-80 57q110 146 224 328l180 16q105 -178 233 -344l-82 -57q-92 66 -241 215q-148 -152 -234 -215zM158 668q0 151 -23 340l250 32l29 -28v-668q0 -170 143 -170q93 0 186 72v774l256 20v-761q0 -149 35 -277l-213 -22q-30 65 -53 151h-8q-145 -151 -324 -151
q-129 0 -203.5 76t-74.5 208v404z" />
    <glyph glyph-name="udieresis" unicode="&#xfc;" horiz-adv-x="1165" 
d="M506 1376q0 -68 -45 -117t-113 -49q-60 0 -97.5 40.5t-37.5 97.5q0 66 48.5 115.5t115.5 49.5q57 0 93 -38t36 -99zM954 1376q0 -68 -44.5 -117t-112.5 -49q-60 0 -97.5 40.5t-37.5 97.5q0 67 48 116t115 49q57 0 93 -38t36 -99zM158 668q0 151 -23 340l250 32l29 -28
v-668q0 -170 143 -170q93 0 186 72v774l256 20v-761q0 -149 35 -277l-213 -22q-30 65 -53 151h-8q-145 -151 -324 -151q-129 0 -203.5 76t-74.5 208v404z" />
    <glyph glyph-name="yacute" unicode="&#xfd;" horiz-adv-x="989" 
d="M707 1544l16 -43q-121 -187 -326 -334l-94 23q124 224 174 377zM969 995l-307 -934q-32 -100 -65 -177.5t-83.5 -156t-109.5 -130.5t-143 -86.5t-185 -38.5l-37 225q303 16 420 317h-107l-321 1004l268 22l137 -514q71 -222 86 -348h4q19 115 92 348l138 514l196 -16z
" />
    <glyph glyph-name="thorn" unicode="&#xfe;" horiz-adv-x="1165" 
d="M152 1182q0 135 -25 340l250 30l31 -28v-578q113 94 262 94q174 0 282.5 -140t108.5 -378q0 -252 -120.5 -397t-340.5 -145q-100 0 -192 28v-158q0 -172 22 -333l-250 -33l-28 29v1669zM563 874q-94 0 -155 -55v-665q68 -33 143 -33q122 0 184 98.5t62 286.5
q0 185 -61 276.5t-173 91.5z" />
    <glyph glyph-name="ydieresis" unicode="&#xff;" horiz-adv-x="989" 
d="M434 1376q0 -68 -45 -117t-113 -49q-60 0 -97.5 40.5t-37.5 97.5q0 66 48.5 115.5t115.5 49.5q57 0 93 -38t36 -99zM883 1376q0 -68 -45 -117t-113 -49q-60 0 -97.5 40.5t-37.5 97.5q0 66 48.5 115.5t115.5 49.5q57 0 93 -38t36 -99zM969 995l-307 -934
q-32 -100 -65 -177.5t-83.5 -156t-109.5 -130.5t-143 -86.5t-185 -38.5l-37 225q303 16 420 317h-107l-321 1004l268 22l137 -514q71 -222 86 -348h4q19 115 92 348l138 514l196 -16z" />
    <glyph glyph-name="Amacron" unicode="&#x100;" horiz-adv-x="1290" 
d="M358 1663v152h576v-152h-576zM281 0h-250l381 1198q41 121 61 217l301 12l41 -34l445 -1393h-265l-108 340h-498zM512 731l-63 -201h376l-61 199q-100 341 -121 457h-8q-46 -196 -123 -455z" />
    <glyph glyph-name="amacron" unicode="&#x101;" horiz-adv-x="1052" 
d="M217 1288v148h584v-148h-584zM889 281q0 -153 45 -281l-215 -20q-34 56 -55 141h-7q-44 -60 -126 -100.5t-179 -40.5q-123 0 -195.5 65.5t-72.5 179.5q0 85 42.5 150t119.5 105.5t175 62t218 26.5v99q0 182 -190 182q-156 0 -310 -90l-14 201q79 33 184 56t203 23
q189 0 286 -87.5t97 -250.5q0 -74 -3 -218.5t-3 -202.5zM336 268q0 -58 35.5 -96.5t97.5 -38.5q93 0 170 70v276q-133 -11 -218 -65t-85 -146z" />
    <glyph glyph-name="Abreve" unicode="&#x102;" horiz-adv-x="1290" 
d="M831 1876l105 8q-14 -130 -94 -209.5t-207 -79.5q-115 0 -193 72.5t-90 194.5l107 16q17 -52 67.5 -81.5t120.5 -29.5q67 0 116.5 30.5t67.5 78.5zM281 0h-250l381 1198q41 121 61 217l301 12l41 -34l445 -1393h-265l-108 340h-498zM512 731l-63 -201h376l-61 199
q-100 341 -121 457h-8q-46 -196 -123 -455z" />
    <glyph glyph-name="abreve" unicode="&#x103;" horiz-adv-x="1052" 
d="M692 1536l105 8q-14 -154 -94 -248t-207 -94q-115 0 -193 87t-90 233l106 16q17 -76 68.5 -120t120.5 -44q68 0 117 45t67 117zM889 281q0 -153 45 -281l-215 -20q-34 56 -55 141h-7q-44 -60 -126 -100.5t-179 -40.5q-123 0 -195.5 65.5t-72.5 179.5q0 85 42.5 150
t119.5 105.5t175 62t218 26.5v99q0 182 -190 182q-156 0 -310 -90l-14 201q79 33 184 56t203 23q189 0 286 -87.5t97 -250.5q0 -74 -3 -218.5t-3 -202.5zM336 268q0 -58 35.5 -96.5t97.5 -38.5q93 0 170 70v276q-133 -11 -218 -65t-85 -146z" />
    <glyph glyph-name="Aogonek" unicode="&#x104;" horiz-adv-x="1290" 
d="M281 0h-250l381 1198q41 121 61 217l301 12l41 -34l445 -1393q-112 -58 -172 -123.5t-60 -128.5q0 -94 98 -94q50 0 113 27l37 -93q-48 -40 -112 -65t-128 -25q-98 0 -159.5 52.5t-61.5 140.5q0 86 69.5 166.5t196.5 142.5h-86l-108 340h-498zM512 731l-63 -201h376
l-61 199q-100 341 -121 457h-8q-46 -196 -123 -455z" />
    <glyph glyph-name="aogonek" unicode="&#x105;" horiz-adv-x="1052" 
d="M889 281q0 -153 45 -281q-112 -58 -172 -123.5t-60 -128.5q0 -44 24.5 -69t74.5 -25q49 0 112 27l37 -93q-48 -40 -111.5 -65t-127.5 -25q-98 0 -160 52.5t-62 140.5q0 79 59.5 154t168.5 135q-33 58 -53 141h-7q-44 -60 -126 -100.5t-179 -40.5q-123 0 -195.5 65.5
t-72.5 179.5q0 85 42.5 150t119.5 105.5t175 62t218 26.5v99q0 182 -190 182q-156 0 -310 -90l-14 201q79 33 184 56t203 23q189 0 286 -87.5t97 -250.5q0 -74 -3 -218.5t-3 -202.5zM336 268q0 -58 35.5 -96.5t97.5 -38.5q93 0 170 70v276q-133 -11 -218 -65t-85 -146z" />
    <glyph glyph-name="Cacute" unicode="&#x106;" horiz-adv-x="1193" 
d="M989 1769l-12 -43q-235 -122 -549 -141l-20 66q248 123 423 256zM1098 291l30 -215q-158 -96 -391 -96q-293 0 -464 187t-171 519q0 166 49 306t135 235.5t207 149t263 53.5q214 0 362 -87l-51 -227q-150 96 -307 96q-172 0 -278.5 -138t-106.5 -378q0 -229 105.5 -364
t293.5 -135q175 0 324 94z" />
    <glyph glyph-name="cacute" unicode="&#x107;" horiz-adv-x="993" 
d="M762 1544l14 -43q-123 -191 -323 -334l-97 23q119 209 174 377zM920 965l-58 -199q-122 84 -241 84q-116 0 -184 -85.5t-68 -240.5q0 -168 76.5 -264t213.5 -96q106 0 230 69l16 -170q-125 -83 -309 -83q-223 2 -357.5 141t-134.5 379q0 246 141 393t367 147
q180 0 308 -75z" />
    <glyph glyph-name="Ccircumflex" unicode="&#x108;" horiz-adv-x="1193" 
d="M428 1579l-68 61q119 103 242 244l180 17q110 -131 252 -261l-67 -61q-109 51 -275 152q-161 -102 -264 -152zM1098 291l30 -215q-158 -96 -391 -96q-293 0 -464 187t-171 519q0 166 49 306t135 235.5t207 149t263 53.5q214 0 362 -87l-51 -227q-150 96 -307 96
q-172 0 -278.5 -138t-106.5 -378q0 -229 105.5 -364t293.5 -135q175 0 324 94z" />
    <glyph glyph-name="ccircumflex" unicode="&#x109;" horiz-adv-x="993" 
d="M338 1153l-82 57q122 161 223 328l180 16q116 -191 234 -344l-82 -57q-95 68 -242 215q-150 -154 -231 -215zM920 965l-58 -199q-122 84 -241 84q-116 0 -184 -85.5t-68 -240.5q0 -168 76.5 -264t213.5 -96q106 0 230 69l16 -170q-125 -83 -309 -83q-223 2 -357.5 141
t-134.5 379q0 246 141 393t367 147q180 0 308 -75z" />
    <glyph glyph-name="Cdotaccent" unicode="&#x10a;" horiz-adv-x="1193" 
d="M858 1763q0 -70 -48 -117t-124 -47q-65 0 -106 38t-41 96q0 65 52.5 112t125.5 47q62 0 101.5 -35.5t39.5 -93.5zM1098 291l30 -215q-158 -96 -391 -96q-293 0 -464 187t-171 519q0 166 49 306t135 235.5t207 149t263 53.5q214 0 362 -87l-51 -227q-150 96 -307 96
q-172 0 -278.5 -138t-106.5 -378q0 -229 105.5 -364t293.5 -135q175 0 324 94z" />
    <glyph glyph-name="cdotaccent" unicode="&#x10b;" horiz-adv-x="993" 
d="M725 1376q0 -72 -49 -124t-121 -52q-66 0 -106.5 43t-40.5 105q0 71 52 122.5t124 51.5q63 0 102 -40t39 -106zM920 965l-58 -199q-122 84 -241 84q-116 0 -184 -85.5t-68 -240.5q0 -168 76.5 -264t213.5 -96q106 0 230 69l16 -170q-125 -83 -309 -83q-223 2 -357.5 141
t-134.5 379q0 246 141 393t367 147q180 0 308 -75z" />
    <glyph glyph-name="Ccaron" unicode="&#x10c;" horiz-adv-x="1193" 
d="M967 1907l67 -60q-120 -107 -241 -245l-181 -17q-117 135 -252 262l68 60q91 -41 274 -152q170 108 265 152zM1098 291l30 -215q-158 -96 -391 -96q-293 0 -464 187t-171 519q0 166 49 306t135 235.5t207 149t263 53.5q214 0 362 -87l-51 -227q-150 96 -307 96
q-172 0 -278.5 -138t-106.5 -378q0 -229 105.5 -364t293.5 -135q175 0 324 94z" />
    <glyph glyph-name="ccaron" unicode="&#x10d;" horiz-adv-x="993" 
d="M811 1579l82 -59q-120 -155 -223 -328l-181 -16q-109 179 -233 344l82 59q99 -76 240 -217q140 144 233 217zM920 965l-58 -199q-122 84 -241 84q-116 0 -184 -85.5t-68 -240.5q0 -168 76.5 -264t213.5 -96q106 0 230 69l16 -170q-125 -83 -309 -83q-223 2 -357.5 141
t-134.5 379q0 246 141 393t367 147q180 0 308 -75z" />
    <glyph glyph-name="Dcaron" unicode="&#x10e;" horiz-adv-x="1404" 
d="M942 1907l70 -60q-118 -106 -244 -245l-178 -17q-120 139 -254 262l70 60q100 -45 272 -152q167 107 264 152zM1303 713q0 -168 -54.5 -303.5t-150.5 -225t-227.5 -137t-286.5 -47.5h-410v1069q0 208 -18 340h460q311 0 499 -187t188 -509zM600 1219h-164v-1029h166
q215 0 321.5 136t106.5 374q0 233 -111 376t-319 143z" />
    <glyph glyph-name="dcaron" unicode="&#x10f;" horiz-adv-x="1179" 
d="M735 1522l250 30l29 -28v-1248q0 -146 47 -276l-221 -20q-26 51 -56 139h-4q-101 -139 -280 -139q-177 0 -286.5 133.5t-109.5 363.5q0 266 146 414.5t379 148.5q61 0 129 -14v156q0 190 -23 340zM1436 1552l16 -43q-56 -212 -188 -430l-86 4q45 255 53 465zM369 510
q0 -172 63 -274.5t174 -102.5q90 0 152 66v690q-58 10 -101 10q-136 0 -212 -100t-76 -289z" />
    <glyph glyph-name="Dcroat" unicode="&#x110;" horiz-adv-x="1404" 
d="M1303 713q0 -168 -54.5 -303.5t-150.5 -225t-227.5 -137t-286.5 -47.5h-410v637h-160v135h160v297q0 208 -18 340h460q311 0 499 -187t188 -509zM784 637h-348v-447h166q215 0 321.5 136t106.5 374q0 233 -111 376t-319 143h-164v-447h348v-135z" />
    <glyph glyph-name="dcroat" unicode="&#x111;" horiz-adv-x="1179" 
d="M1198 1184h-184v-908q0 -146 47 -276l-221 -20q-26 51 -56 139h-4q-101 -139 -280 -139q-177 0 -286.5 133.5t-109.5 363.5q0 266 146 414.5t379 148.5q61 0 129 -14v158h-328v137h326q-6 94 -21 201l250 30l29 -28v-203h184v-137zM369 510q0 -172 63 -274.5t174 -102.5
q90 0 152 66v690q-58 10 -101 10q-136 0 -212 -100t-76 -289z" />
    <glyph glyph-name="Emacron" unicode="&#x112;" horiz-adv-x="1099" 
d="M311 1663v152h576v-152h-576zM1032 205v-205h-858v1069q0 208 -18 340h833l29 -29l-6 -176l-576 15v-435l482 9l-7 -191l-475 10v-422z" />
    <glyph glyph-name="emacron" unicode="&#x113;" horiz-adv-x="1071" 
d="M258 1288v148h584v-148h-584zM977 514l-31 -31h-575q15 -161 95 -240t212 -79q128 0 254 74l16 -170q-54 -36 -142 -62t-196 -26q-231 0 -368.5 135.5t-137.5 380.5q0 124 38 227.5t103.5 172.5t153 106.5t187.5 37.5q181 0 287 -114t106 -299q0 -76 -2 -113zM573 887
q-87 0 -142.5 -82t-61.5 -227l356 14q2 23 2 74q0 99 -40 160t-114 61z" />
    <glyph glyph-name="Ebreve" unicode="&#x114;" horiz-adv-x="1099" 
d="M784 1876l105 8q-14 -130 -94 -209.5t-205 -79.5q-117 0 -195 72.5t-88 194.5l105 16q17 -52 67.5 -81.5t120.5 -29.5q67 0 116.5 30.5t67.5 78.5zM1032 205v-205h-858v1069q0 208 -18 340h833l29 -29l-6 -176l-576 15v-435l482 9l-7 -191l-475 10v-422z" />
    <glyph glyph-name="ebreve" unicode="&#x115;" horiz-adv-x="1071" 
d="M733 1536l105 8q-14 -154 -94 -248t-207 -94q-115 0 -193 87t-90 233l106 16q17 -76 68.5 -120t120.5 -44q68 0 117 45t67 117zM977 514l-31 -31h-575q15 -161 95 -240t212 -79q128 0 254 74l16 -170q-54 -36 -142 -62t-196 -26q-231 0 -368.5 135.5t-137.5 380.5
q0 124 38 227.5t103.5 172.5t153 106.5t187.5 37.5q181 0 287 -114t106 -299q0 -76 -2 -113zM573 887q-87 0 -142.5 -82t-61.5 -227l356 14q2 23 2 74q0 99 -40 160t-114 61z" />
    <glyph glyph-name="Edotaccent" unicode="&#x116;" horiz-adv-x="1099" 
d="M760 1763q0 -70 -49 -117t-125 -47q-64 0 -106 38.5t-42 95.5q0 65 53.5 112t126.5 47q61 0 101.5 -35.5t40.5 -93.5zM1032 205v-205h-858v1069q0 208 -18 340h833l29 -29l-6 -176l-576 15v-435l482 9l-7 -191l-475 10v-422z" />
    <glyph glyph-name="edotaccent" unicode="&#x117;" horiz-adv-x="1071" 
d="M709 1376q0 -72 -49 -124t-121 -52q-66 0 -108 43t-42 105q0 70 53 122t125 52q63 0 102.5 -40t39.5 -106zM977 514l-31 -31h-575q15 -161 95 -240t212 -79q128 0 254 74l16 -170q-54 -36 -142 -62t-196 -26q-231 0 -368.5 135.5t-137.5 380.5q0 124 38 227.5
t103.5 172.5t153 106.5t187.5 37.5q181 0 287 -114t106 -299q0 -76 -2 -113zM573 887q-87 0 -142.5 -82t-61.5 -227l356 14q2 23 2 74q0 99 -40 160t-114 61z" />
    <glyph glyph-name="Eogonek" unicode="&#x118;" horiz-adv-x="1099" 
d="M1032 0q-112 -58 -171.5 -123.5t-59.5 -128.5q0 -94 98 -94q50 0 113 27l39 -93q-48 -40 -112 -65t-128 -25q-99 0 -160 52.5t-61 140.5q0 86 69.5 167t196.5 142h-682v1069q0 208 -18 340h833l29 -29l-6 -176l-576 15v-435l482 9l-7 -191l-475 10v-422l596 15v-205z" />
    <glyph glyph-name="eogonek" unicode="&#x119;" horiz-adv-x="1075" 
d="M977 514l-31 -31h-575q15 -161 95 -240t212 -79q128 0 254 74l16 -170q-1 0 -3 -1t-3 -1q-272 -180 -272 -312q0 -43 24.5 -67.5t73.5 -24.5q50 0 113 27l39 -92q-47 -41 -112 -66t-130 -25q-97 0 -158 51.5t-61 135.5q0 149 219 289q-12 0 -34 -1t-34 -1
q-231 0 -368.5 135.5t-137.5 380.5q0 124 38 227.5t103.5 172.5t153 106.5t187.5 37.5q181 0 287 -114t106 -299q0 -76 -2 -113zM573 887q-87 0 -142.5 -82t-61.5 -227l356 14q2 23 2 74q0 99 -40 160t-114 61z" />
    <glyph glyph-name="Ecaron" unicode="&#x11a;" horiz-adv-x="1099" 
d="M866 1907l70 -60q-134 -120 -244 -245l-180 -17q-102 122 -252 262l70 60q105 -48 272 -152q167 107 264 152zM1032 205v-205h-858v1069q0 208 -18 340h833l29 -29l-6 -176l-576 15v-435l482 9l-7 -191l-475 10v-422z" />
    <glyph glyph-name="ecaron" unicode="&#x11b;" horiz-adv-x="1071" 
d="M795 1579l82 -59q-120 -155 -226 -328l-178 -16q-109 179 -233 344l79 59q100 -75 242 -217q137 141 234 217zM977 514l-31 -31h-575q15 -161 95 -240t212 -79q128 0 254 74l16 -170q-54 -36 -142 -62t-196 -26q-231 0 -368.5 135.5t-137.5 380.5q0 124 38 227.5
t103.5 172.5t153 106.5t187.5 37.5q181 0 287 -114t106 -299q0 -76 -2 -113zM573 887q-87 0 -142.5 -82t-61.5 -227l356 14q2 23 2 74q0 99 -40 160t-114 61z" />
    <glyph glyph-name="Gcircumflex" unicode="&#x11c;" horiz-adv-x="1314" 
d="M440 1579l-67 61q114 100 241 244l181 17q124 -144 252 -261l-68 -61q-105 49 -274 152q-158 -101 -265 -152zM1171 645l29 -29l-6 -546q-88 -41 -205 -65.5t-231 -24.5q-310 0 -483 184t-173 508q0 344 189.5 551t507.5 207q215 0 368 -80l-45 -228q-140 97 -311 97
q-198 0 -317 -137.5t-119 -389.5q0 -233 105.5 -370.5t305.5 -137.5q65 0 162 17v24q0 217 -24 400z" />
    <glyph glyph-name="gcircumflex" unicode="&#x11d;" horiz-adv-x="1050" 
d="M274 1153l-79 57q105 138 223 328l180 16q105 -178 233 -344l-81 -57q-95 68 -242 215q-148 -152 -234 -215zM215 129q0 108 109 182q-108 39 -172 126.5t-64 207.5q0 166 115 280.5t305 114.5q153 0 240 -67q35 58 101 89.5t138 31.5l31 -23l-6 -170h-209
q45 -36 74.5 -98t29.5 -146q0 -161 -112 -268.5t-297 -107.5q-38 0 -72 6q-16 -32 -16 -62q0 -45 24 -64t80 -24l184 -12q143 -8 231.5 -75t88.5 -193q0 -166 -148 -275.5t-395 -109.5q-204 0 -327 74t-123 190q0 70 45 120.5t108 71.5l94 -41q-28 -36 -28 -75
q0 -88 71.5 -150.5t192.5 -62.5q113 0 183.5 52.5t70.5 137.5q0 135 -180 154l-168 16q-96 9 -147.5 53.5t-51.5 116.5zM662 659q0 248 -160 248q-168 0 -168 -248q0 -118 42.5 -180.5t125.5 -62.5q160 0 160 243z" />
    <glyph glyph-name="Gbreve" unicode="&#x11e;" horiz-adv-x="1314" 
d="M897 1876l104 8q-14 -130 -94 -209.5t-207 -79.5q-115 0 -192.5 72.5t-89.5 194.5l104 16q19 -52 69.5 -81.5t121.5 -29.5q66 0 116 30.5t68 78.5zM1171 645l29 -29l-6 -546q-88 -41 -205 -65.5t-231 -24.5q-310 0 -483 184t-173 508q0 344 189.5 551t507.5 207
q215 0 368 -80l-45 -228q-140 97 -311 97q-198 0 -317 -137.5t-119 -389.5q0 -233 105.5 -370.5t305.5 -137.5q65 0 162 17v24q0 217 -24 400z" />
    <glyph glyph-name="gbreve" unicode="&#x11f;" horiz-adv-x="1050" 
d="M688 1536l105 8q-14 -154 -94 -248t-207 -94q-115 0 -193 87t-88 233l104 16q17 -76 68.5 -120t120.5 -44q68 0 117 45t67 117zM215 129q0 108 109 182q-108 39 -172 126.5t-64 207.5q0 166 115 280.5t305 114.5q153 0 240 -67q35 58 101 89.5t138 31.5l31 -23l-6 -170
h-209q45 -36 74.5 -98t29.5 -146q0 -161 -112 -268.5t-297 -107.5q-38 0 -72 6q-16 -32 -16 -62q0 -45 24 -64t80 -24l184 -12q143 -8 231.5 -75t88.5 -193q0 -166 -148 -275.5t-395 -109.5q-204 0 -327 74t-123 190q0 70 45 120.5t108 71.5l94 -41q-28 -36 -28 -75
q0 -88 71.5 -150.5t192.5 -62.5q113 0 183.5 52.5t70.5 137.5q0 135 -180 154l-168 16q-96 9 -147.5 53.5t-51.5 116.5zM662 659q0 248 -160 248q-168 0 -168 -248q0 -118 42.5 -180.5t125.5 -62.5q160 0 160 243z" />
    <glyph glyph-name="Gdotaccent" unicode="&#x120;" horiz-adv-x="1314" 
d="M870 1763q0 -70 -48 -117t-124 -47q-64 0 -105.5 38.5t-41.5 95.5q0 65 52.5 112t125.5 47q62 0 101.5 -35.5t39.5 -93.5zM1171 645l29 -29l-6 -546q-88 -41 -205 -65.5t-231 -24.5q-310 0 -483 184t-173 508q0 344 189.5 551t507.5 207q215 0 368 -80l-45 -228
q-140 97 -311 97q-198 0 -317 -137.5t-119 -389.5q0 -233 105.5 -370.5t305.5 -137.5q65 0 162 17v24q0 217 -24 400z" />
    <glyph glyph-name="gdotaccent" unicode="&#x121;" horiz-adv-x="1050" 
d="M664 1376q0 -72 -49 -124t-121 -52q-66 0 -107 43t-41 105q0 71 52 122.5t124 51.5q63 0 102.5 -40t39.5 -106zM215 129q0 108 109 182q-108 39 -172 126.5t-64 207.5q0 166 115 280.5t305 114.5q153 0 240 -67q35 58 101 89.5t138 31.5l31 -23l-6 -170h-209
q45 -36 74.5 -98t29.5 -146q0 -161 -112 -268.5t-297 -107.5q-38 0 -72 6q-16 -32 -16 -62q0 -45 24 -64t80 -24l184 -12q143 -8 231.5 -75t88.5 -193q0 -166 -148 -275.5t-395 -109.5q-204 0 -327 74t-123 190q0 70 45 120.5t108 71.5l94 -41q-28 -36 -28 -75
q0 -88 71.5 -150.5t192.5 -62.5q113 0 183.5 52.5t70.5 137.5q0 135 -180 154l-168 16q-96 9 -147.5 53.5t-51.5 116.5zM662 659q0 248 -160 248q-168 0 -168 -248q0 -118 42.5 -180.5t125.5 -62.5q160 0 160 243z" />
    <glyph glyph-name="Gcommaaccent" unicode="&#x122;" horiz-adv-x="1314" 
d="M1171 645l29 -29l-6 -546q-88 -41 -205 -65.5t-231 -24.5q-310 0 -483 184t-173 508q0 344 189.5 551t507.5 207q215 0 368 -80l-45 -228q-140 97 -311 97q-198 0 -317 -137.5t-119 -389.5q0 -233 105.5 -370.5t305.5 -137.5q65 0 162 17v24q0 217 -24 400zM614 -651
q79 104 105 194q-46 6 -77.5 42.5t-31.5 86.5q0 59 41.5 103.5t104.5 44.5q60 0 98.5 -41.5t38.5 -116.5q0 -169 -199 -377z" />
    <glyph glyph-name="gcommaaccent" unicode="&#x123;" horiz-adv-x="1050" 
d="M633 1642q-79 -104 -105 -194q46 -6 77.5 -42.5t31.5 -86.5q0 -59 -41 -103.5t-104 -44.5q-59 0 -98.5 41.5t-39.5 116.5q0 163 199 377zM215 129q0 108 109 182q-108 39 -172 126.5t-64 207.5q0 166 115 280.5t305 114.5q153 0 240 -67q35 58 101 89.5t138 31.5l31 -23
l-6 -170h-209q45 -36 74.5 -98t29.5 -146q0 -161 -112 -268.5t-297 -107.5q-38 0 -72 6q-16 -32 -16 -62q0 -45 24 -64t80 -24l184 -12q143 -8 231.5 -75t88.5 -193q0 -166 -148 -275.5t-395 -109.5q-204 0 -327 74t-123 190q0 70 45 120.5t108 71.5l94 -41q-28 -36 -28 -75
q0 -88 71.5 -150.5t192.5 -62.5q113 0 183.5 52.5t70.5 137.5q0 135 -180 154l-168 16q-96 9 -147.5 53.5t-51.5 116.5zM662 659q0 248 -160 248q-168 0 -168 -248q0 -118 42.5 -180.5t125.5 -62.5q160 0 160 243z" />
    <glyph glyph-name="Hcircumflex" unicode="&#x124;" horiz-adv-x="1454" 
d="M459 1579l-70 61q119 103 242 244l180 17q127 -147 254 -261l-70 -61q-113 53 -272 152q-172 -107 -264 -152zM436 0h-262v1059q0 194 -18 350l252 21l28 -29v-606h580v264q0 185 -19 350l254 21l29 -29v-1401h-264v604h-580v-604z" />
    <glyph glyph-name="hcircumflex" unicode="&#x125;" horiz-adv-x="1171" 
d="M2 1659l-70 59q121 108 242 246l180 16q120 -139 254 -262l-69 -59q-102 46 -275 151q-167 -106 -262 -151zM408 0h-256v1182q0 175 -25 340l250 30l31 -28v-621q153 137 321 137q132 0 206.5 -82t74.5 -231v-727h-258v678q0 184 -150 184q-96 0 -194 -76v-786z" />
    <glyph glyph-name="Hbar" unicode="&#x126;" horiz-adv-x="1454" 
d="M436 0h-262v1010h-143v137h141q-3 158 -16 262l252 21l28 -29v-254h580q-3 129 -19 262l254 21l29 -29v-254h145v-137h-145v-1010h-264v604h-580v-604zM436 795h580v215h-580v-215z" />
    <glyph glyph-name="hbar" unicode="&#x127;" horiz-adv-x="1171" 
d="M408 0h-256v1174h-181v137h176q-2 75 -20 211l250 30l31 -28v-213h333v-137h-333v-271q153 137 321 137q132 0 206.5 -82t74.5 -231v-727h-258v678q0 184 -150 184q-96 0 -194 -76v-786z" />
    <glyph glyph-name="Itilde" unicode="&#x128;" horiz-adv-x="610" 
d="M147 1888q43 0 87.5 -18t76 -39t71 -39t73.5 -18q42 0 70.5 24.5t56.5 73.5l67 -10q-3 -68 -25 -125.5t-69 -97.5t-111 -40q-41 0 -87 18t-80.5 39.5t-75.5 39.5t-72 18q-71 0 -125 -98l-67 10q2 49 14.5 92.5t36 83t64.5 63t95 23.5zM436 0h-262v1059q0 194 -18 350
l252 21l28 -29v-1401z" />
    <glyph glyph-name="itilde" unicode="&#x129;" horiz-adv-x="575" 
d="M170 1524q32 0 68 -18.5t61.5 -40t56 -40t52.5 -18.5q29 0 50.5 25t39.5 75l67 -12q-1 -71 -17.5 -133.5t-56 -108t-94.5 -45.5q-39 0 -86.5 29t-88 58.5t-60.5 29.5q-55 0 -92 -100l-68 12q2 72 18.5 134t55.5 107.5t94 45.5zM158 0v670q0 175 -25 340l252 30l29 -28
v-1012h-256z" />
    <glyph glyph-name="Imacron" unicode="&#x12a;" horiz-adv-x="610" 
d="M6 1663v152h576v-152h-576zM436 0h-262v1059q0 194 -18 350l252 21l28 -29v-1401z" />
    <glyph glyph-name="imacron" unicode="&#x12b;" horiz-adv-x="575" 
d="M37 1288v148h493v-148h-493zM158 0v670q0 175 -25 340l252 30l29 -28v-1012h-256z" />
    <glyph glyph-name="Ibreve" unicode="&#x12c;" horiz-adv-x="610" 
d="M479 1876l105 8q-14 -130 -94 -209.5t-205 -79.5q-117 0 -195 72.5t-88 194.5l104 16q17 -52 68 -81.5t121 -29.5q67 0 116.5 30.5t67.5 78.5zM436 0h-262v1059q0 194 -18 350l252 21l28 -29v-1401z" />
    <glyph glyph-name="ibreve" unicode="&#x12d;" horiz-adv-x="575" 
d="M436 1524l105 8q-11 -154 -82.5 -248t-184.5 -94q-101 0 -169.5 86.5t-77.5 232.5l104 17q10 -76 53 -121t103 -45q58 0 98 45.5t51 118.5zM158 0v670q0 175 -25 340l252 30l29 -28v-1012h-256z" />
    <glyph glyph-name="Iogonek" unicode="&#x12e;" horiz-adv-x="585" 
d="M426 0q-141 -125 -141 -250q0 -45 25 -70.5t73 -25.5q50 0 113 27l39 -93q-111 -90 -242 -90q-97 0 -158 54t-61 147q0 81 51.5 160.5t140.5 140.5h-92v1059q0 194 -18 350l252 21l28 -29v-1401h-10z" />
    <glyph glyph-name="iogonek" unicode="&#x12f;" horiz-adv-x="575" 
d="M444 1376q0 -72 -49 -124t-123 -52q-66 0 -106.5 43t-40.5 105q0 71 52.5 122.5t125.5 51.5q62 0 101.5 -40.5t39.5 -105.5zM158 0v670q0 175 -25 340l252 30l29 -28v-1012q-72 -54 -111 -115t-39 -118q0 -47 28.5 -76t80.5 -29q47 0 102 27l39 -92q-49 -41 -112.5 -66
t-127.5 -25q-99 0 -160 54t-61 145q0 77 53 155t146 140h-94z" />
    <glyph glyph-name="Idotaccent" unicode="&#x130;" horiz-adv-x="610" 
d="M455 1763q0 -70 -49 -117t-125 -47q-64 0 -106 38.5t-42 95.5q0 65 53.5 112t126.5 47q61 0 101.5 -35.5t40.5 -93.5zM436 0h-262v1059q0 194 -18 350l252 21l28 -29v-1401z" />
    <glyph glyph-name="dotlessi" unicode="&#x131;" horiz-adv-x="575" 
d="M158 0v670q0 175 -25 340l252 30l29 -28v-1012h-256z" />
    <glyph glyph-name="IJ" unicode="&#x132;" horiz-adv-x="1210" 
d="M436 0h-262v1059q0 194 -18 350l252 21l28 -29v-1401zM692 -426l-82 115q164 184 164 520v850q0 161 -24 340l260 31l26 -27v-1194q0 -247 -74.5 -387t-269.5 -248z" />
    <glyph glyph-name="ij" unicode="&#x133;" horiz-adv-x="1155" 
d="M444 1376q0 -72 -49 -124t-123 -52q-66 0 -106.5 43t-40.5 105q0 71 52.5 122.5t125.5 51.5q62 0 101.5 -40.5t39.5 -105.5zM1020 1376q0 -72 -50 -124t-122 -52q-66 0 -107 43t-41 105q0 71 52.5 122.5t124.5 51.5q63 0 103 -40t40 -106zM158 0v670q0 175 -25 340
l252 30l29 -28v-1012h-256zM690 -528l-96 94q143 170 143 442v662q0 162 -24 340l252 30l28 -28v-992q0 -207 -68.5 -331.5t-234.5 -216.5z" />
    <glyph glyph-name="Jcircumflex" unicode="&#x134;" horiz-adv-x="600" 
d="M25 1579l-68 61q119 103 242 244l180 17q110 -131 252 -261l-68 -61q-105 49 -274 152q-161 -102 -264 -152zM82 -426l-82 115q164 184 164 520v850q0 154 -25 340l260 31l27 -27v-1194q0 -247 -74.5 -387t-269.5 -248z" />
    <glyph glyph-name="jcircumflex" unicode="&#x135;" horiz-adv-x="579" 
d="M117 1169l-88 37q71 166 127 344l243 17q53 -168 136 -361l-86 -37q-86 90 -170 222q-85 -139 -162 -222zM113 -528l-97 94q144 167 144 442v662q0 169 -23 340l250 30l29 -28v-992q0 -207 -68.5 -331.5t-234.5 -216.5z" />
    <glyph glyph-name="Kcommaaccent" unicode="&#x136;" horiz-adv-x="1280" 
d="M174 1059q0 194 -18 350l252 21l28 -29v-635h162q58 104 360 664l240 -23l16 -29l-401 -649l449 -729l-299 -14q-156 238 -363 587h-164v-573h-262v1059zM514 -651q77 102 104 194q-46 6 -77 42.5t-31 86.5q0 59 41 103.5t104 44.5q59 0 98.5 -41.5t39.5 -116.5
q0 -169 -199 -377z" />
    <glyph glyph-name="kcommaaccent" unicode="&#x137;" horiz-adv-x="1091" 
d="M152 1182q0 154 -25 340l250 30l31 -28v-949h112q122 201 264 465l209 -22l17 -29l-277 -401q107 -198 338 -588l-289 -20q-129 215 -254 458h-120v-438h-256v1182zM422 -651q78 103 102 194q-45 6 -75.5 42.5t-30.5 86.5q0 59 41 103.5t104 44.5q58 0 96.5 -41.5
t38.5 -116.5q0 -167 -196 -377z" />
    <glyph glyph-name="kgreenlandic" unicode="&#x138;" horiz-adv-x="1091" 
d="M152 670q0 154 -25 340l250 30l31 -28v-437h112q122 201 264 465l209 -22l17 -29l-277 -401q107 -198 338 -588l-289 -20q-129 215 -254 458h-120v-438h-256v670z" />
    <glyph glyph-name="Lacute" unicode="&#x139;" horiz-adv-x="1034" 
d="M774 1769l-14 -43q-235 -122 -547 -141l-20 66q248 123 423 256zM1001 205v-205h-827v1059q0 194 -18 350l252 21l28 -29v-1211z" />
    <glyph glyph-name="lacute" unicode="&#x13a;" horiz-adv-x="575" 
d="M584 1882l-13 -43q-235 -122 -548 -141l-21 65q251 124 424 256zM414 0h-256v1182q0 154 -25 340l252 30l29 -28v-1524z" />
    <glyph glyph-name="Lcommaaccent" unicode="&#x13b;" horiz-adv-x="1034" 
d="M1001 205v-205h-827v1059q0 194 -18 350l252 21l28 -29v-1211zM461 -651q77 102 104 194q-46 6 -77 42.5t-31 86.5q0 59 41 103.5t104 44.5q60 0 98.5 -41.5t38.5 -116.5q0 -170 -198 -377z" />
    <glyph glyph-name="lcommaaccent" unicode="&#x13c;" horiz-adv-x="575" 
d="M414 0h-256v1182q0 154 -25 340l252 30l29 -28v-1524zM152 -651q78 103 102 194q-45 6 -76 42.5t-31 86.5q0 59 41.5 103.5t104.5 44.5q58 0 96.5 -41.5t38.5 -116.5q0 -166 -197 -377z" />
    <glyph glyph-name="Lcaron" unicode="&#x13d;" horiz-adv-x="1034" 
d="M891 1563l18 -43q-56 -212 -188 -433l-86 7q42 260 53 462zM1001 205v-205h-827v1059q0 194 -18 350l252 21l28 -29v-1211z" />
    <glyph glyph-name="lcaron" unicode="&#x13e;" horiz-adv-x="575" 
d="M801 1585l16 -43q-50 -198 -186 -432l-88 6q45 255 53 463zM414 0h-256v1182q0 154 -25 340l252 30l29 -28v-1524z" />
    <glyph glyph-name="Ldot" unicode="&#x13f;" horiz-adv-x="1034" 
d="M944 752q0 -70 -48.5 -118t-117.5 -48t-114.5 45.5t-45.5 111.5q0 69 51 118.5t122 49.5q66 0 109.5 -44.5t43.5 -114.5zM1001 205v-205h-827v1059q0 194 -18 350l252 21l28 -29v-1211z" />
    <glyph glyph-name="ldot" unicode="&#x140;" horiz-adv-x="1103" 
d="M414 0h-256v1182q0 154 -25 340l252 30l29 -28v-1524zM999 657q0 -70 -48 -117.5t-117 -47.5t-114.5 45.5t-45.5 111.5q0 69 50.5 118.5t121.5 49.5q67 0 110 -44.5t43 -115.5z" />
    <glyph glyph-name="Lslash" unicode="&#x141;" horiz-adv-x="1034" 
d="M1001 205v-205h-827v549l-174 -96l-63 114l237 131v361q0 194 -18 350l252 21l28 -29v-557l240 133l63 -117l-303 -166v-504z" />
    <glyph glyph-name="lslash" unicode="&#x142;" horiz-adv-x="575" 
d="M414 0h-256v715l-207 -115l-64 117l271 149v316q0 154 -25 340l252 30l29 -28v-516l213 116l63 -114l-276 -154v-856z" />
    <glyph glyph-name="Nacute" unicode="&#x143;" horiz-adv-x="1445" 
d="M993 1769l-14 -43q-232 -122 -547 -141l-20 66q251 124 424 256zM758 858q185 -303 278 -512h6q-13 130 -16.5 242.5t-3.5 398.5q0 228 -18 422l241 18l29 -28v-1399h-254q-69 114 -181 302.5t-157 262.5q-182 295 -272 486h-4q18 -166 18 -441v-610h-250v1069
q0 184 -18 340l266 16q267 -452 336 -567z" />
    <glyph glyph-name="nacute" unicode="&#x144;" horiz-adv-x="1181" 
d="M772 1544l14 -43q-123 -191 -323 -334l-96 23q119 209 174 377zM418 0h-256v672q0 152 -41 321l239 47q34 -90 46 -149q155 149 333 149q132 0 206.5 -82t74.5 -231v-727h-258v678q0 184 -150 184q-92 0 -194 -76v-786z" />
    <glyph glyph-name="Ncommaaccent" unicode="&#x145;" horiz-adv-x="1445" 
d="M758 858q185 -303 278 -512h6q-13 130 -16.5 242.5t-3.5 398.5q0 228 -18 422l241 18l29 -28v-1399h-254q-69 114 -181 302.5t-157 262.5q-182 295 -272 486h-4q18 -166 18 -441v-610h-250v1069q0 184 -18 340l266 16q267 -452 336 -567zM600 -651q79 104 105 194
q-46 6 -77.5 42.5t-31.5 86.5q0 59 41 103.5t104 44.5q59 0 98.5 -41.5t39.5 -116.5q0 -163 -199 -377z" />
    <glyph glyph-name="ncommaaccent" unicode="&#x146;" horiz-adv-x="1181" 
d="M418 0h-256v672q0 152 -41 321l239 47q34 -90 46 -149q155 149 333 149q132 0 206.5 -82t74.5 -231v-727h-258v678q0 184 -150 184q-92 0 -194 -76v-786zM449 -651q77 102 104 194q-46 6 -77.5 42.5t-31.5 86.5q0 59 41.5 103.5t104.5 44.5q59 0 98 -41.5t39 -116.5
q0 -163 -199 -377z" />
    <glyph glyph-name="Ncaron" unicode="&#x147;" horiz-adv-x="1445" 
d="M969 1907l69 -60q-120 -107 -241 -245l-181 -17q-120 139 -254 262l70 60q103 -47 273 -152q184 115 264 152zM758 858q185 -303 278 -512h6q-13 130 -16.5 242.5t-3.5 398.5q0 228 -18 422l241 18l29 -28v-1399h-254q-69 114 -181 302.5t-157 262.5q-182 295 -272 486
h-4q18 -166 18 -441v-610h-250v1069q0 184 -18 340l266 16q267 -452 336 -567z" />
    <glyph glyph-name="ncaron" unicode="&#x148;" horiz-adv-x="1181" 
d="M821 1579l82 -59q-120 -155 -223 -328l-180 -16q-105 172 -234 344l82 59q90 -69 242 -217q131 138 231 217zM418 0h-256v672q0 152 -41 321l239 47q34 -90 46 -149q155 149 333 149q132 0 206.5 -82t74.5 -231v-727h-258v678q0 184 -150 184q-92 0 -194 -76v-786z" />
    <glyph glyph-name="Eng" unicode="&#x14a;" horiz-adv-x="1445" 
d="M922 -397l-76 98q74 72 113 143.5t49 175.5q-48 80 -159.5 267.5t-166.5 277.5q-182 295 -272 486h-4q18 -166 18 -441v-610h-250v1069q0 184 -18 340l266 16q267 -452 336 -567q185 -303 278 -512h6q-13 130 -16.5 242.5t-3.5 398.5q0 228 -18 422l241 18l29 -28v-1190
q0 -240 -77 -375.5t-275 -230.5z" />
    <glyph glyph-name="eng" unicode="&#x14b;" horiz-adv-x="1181" 
d="M418 0h-256v672q0 152 -41 321l239 47q34 -90 46 -149q155 149 333 149q132 0 206.5 -82t74.5 -231v-653q0 -193 -56.5 -314.5t-197.5 -234.5l-102 92q98 201 98 457v604q0 184 -150 184q-92 0 -194 -76v-786z" />
    <glyph glyph-name="Omacron" unicode="&#x14c;" horiz-adv-x="1447" 
d="M444 1651v151h576v-151h-576zM1346 709q0 -174 -50 -313.5t-137 -229.5t-202 -138t-248 -48q-132 0 -243.5 48t-192 136t-126 221.5t-45.5 296.5q0 169 48.5 310t133.5 236.5t202.5 148.5t254.5 53q275 0 440 -196t165 -525zM375 707q0 -153 38.5 -271t119 -188
t192.5 -70q170 0 259 140t89 384q0 117 -20.5 212t-61 166.5t-106.5 111t-152 39.5q-167 0 -262.5 -141.5t-95.5 -382.5z" />
    <glyph glyph-name="omacron" unicode="&#x14d;" horiz-adv-x="1153" 
d="M285 1288v148h583v-148h-583zM1051 516q0 -130 -39.5 -233.5t-107.5 -168.5t-155 -99.5t-186 -34.5q-202 0 -330.5 137.5t-128.5 378.5q0 127 38 231t104.5 172t154.5 104.5t189 36.5q206 0 333.5 -142t127.5 -382zM369 516q0 -180 52 -281.5t157 -101.5q101 0 153.5 97
t52.5 272q0 385 -206 385q-100 0 -154.5 -94t-54.5 -277z" />
    <glyph glyph-name="Obreve" unicode="&#x14e;" horiz-adv-x="1447" 
d="M920 1864l104 8q-14 -130 -94.5 -209.5t-206.5 -79.5q-117 0 -195 72t-88 194l105 17q19 -52 69 -81.5t119 -29.5q67 0 117.5 30.5t69.5 78.5zM1346 709q0 -174 -50 -313.5t-137 -229.5t-202 -138t-248 -48q-132 0 -243.5 48t-192 136t-126 221.5t-45.5 296.5
q0 169 48.5 310t133.5 236.5t202.5 148.5t254.5 53q275 0 440 -196t165 -525zM375 707q0 -153 38.5 -271t119 -188t192.5 -70q170 0 259 140t89 384q0 117 -20.5 212t-61 166.5t-106.5 111t-152 39.5q-167 0 -262.5 -141.5t-95.5 -382.5z" />
    <glyph glyph-name="obreve" unicode="&#x14f;" horiz-adv-x="1153" 
d="M762 1536l104 8q-14 -153 -94.5 -247.5t-206.5 -94.5q-117 0 -194.5 86.5t-87.5 233.5l104 16q17 -76 68 -120t120 -44q68 0 118 45t69 117zM1051 516q0 -130 -39.5 -233.5t-107.5 -168.5t-155 -99.5t-186 -34.5q-202 0 -330.5 137.5t-128.5 378.5q0 127 38 231
t104.5 172t154.5 104.5t189 36.5q206 0 333.5 -142t127.5 -382zM369 516q0 -180 52 -281.5t157 -101.5q101 0 153.5 97t52.5 272q0 385 -206 385q-100 0 -154.5 -94t-54.5 -277z" />
    <glyph glyph-name="Ohungarumlaut" unicode="&#x150;" horiz-adv-x="1447" 
d="M733 1761l-12 -43q-181 -126 -438 -145l-21 65q214 129 344 256zM1202 1761l-14 -43q-181 -125 -436 -145l-21 65q213 130 344 256zM1346 709q0 -174 -50 -313.5t-137 -229.5t-202 -138t-248 -48q-132 0 -243.5 48t-192 136t-126 221.5t-45.5 296.5q0 169 48.5 310
t133.5 236.5t202.5 148.5t254.5 53q275 0 440 -196t165 -525zM375 707q0 -153 38.5 -271t119 -188t192.5 -70q170 0 259 140t89 384q0 117 -20.5 212t-61 166.5t-106.5 111t-152 39.5q-167 0 -262.5 -141.5t-95.5 -382.5z" />
    <glyph glyph-name="ohungarumlaut" unicode="&#x151;" horiz-adv-x="1153" 
d="M582 1550l14 -45q-105 -185 -279 -336l-96 25q118 200 174 377zM913 1550l15 -45q-106 -187 -281 -336l-94 25q118 200 174 377zM1051 516q0 -130 -39.5 -233.5t-107.5 -168.5t-155 -99.5t-186 -34.5q-202 0 -330.5 137.5t-128.5 378.5q0 127 38 231t104.5 172
t154.5 104.5t189 36.5q206 0 333.5 -142t127.5 -382zM369 516q0 -180 52 -281.5t157 -101.5q101 0 153.5 97t52.5 272q0 385 -206 385q-100 0 -154.5 -94t-54.5 -277z" />
    <glyph glyph-name="OE" unicode="&#x152;" horiz-adv-x="1951" 
d="M1884 205v-205h-1007q-76 -20 -168 -20q-132 0 -243.5 48t-192 136t-126 221.5t-45.5 296.5q0 169 48.5 310t133.5 236.5t202.5 148.5t254.5 53q85 0 162 -21h938l29 -29l-6 -176l-670 13q131 -169 149 -433l426 9l-6 -191l-422 10q-20 -254 -157 -419zM375 707
q0 -153 38.5 -271t119 -188t192.5 -70q170 0 259 140t89 384q0 117 -20.5 212t-61 166.5t-106.5 111t-152 39.5q-167 0 -262.5 -141.5t-95.5 -382.5z" />
    <glyph glyph-name="oe" unicode="&#x153;" horiz-adv-x="1751" 
d="M1659 514l-31 -31h-575q13 -161 93 -240t212 -79q130 0 256 74l14 -170q-50 -35 -141 -61.5t-189 -26.5q-123 0 -221 45.5t-164 128.5q-65 -83 -158 -128.5t-200 -45.5q-196 0 -323.5 138t-127.5 378q0 127 38.5 231.5t104.5 172t152 104t183 36.5q220 0 346 -176
q64 83 154 129.5t194 46.5q171 0 278 -115t107 -298q0 -76 -2 -113zM369 516q0 -180 52 -281.5t157 -101.5q101 0 153.5 97.5t52.5 273.5q0 182 -50.5 282.5t-155.5 100.5q-100 0 -154.5 -94t-54.5 -277zM1255 887q-88 0 -144 -82.5t-60 -226.5l356 14q2 23 2 70
q0 103 -39.5 164t-114.5 61z" />
    <glyph glyph-name="Racute" unicode="&#x154;" horiz-adv-x="1241" 
d="M922 1757l-15 -43q-232 -122 -547 -141l-20 65q261 129 424 256zM436 0h-262v1069q0 208 -18 340h430q259 0 404 -118t145 -322q0 -143 -69.5 -240.5t-186.5 -146.5l323 -582l-299 -14q-128 244 -254 528h-213v-514zM567 1219h-131v-523h129q150 0 223.5 66.5t73.5 191.5
q0 124 -71 194.5t-224 70.5z" />
    <glyph glyph-name="racute" unicode="&#x155;" horiz-adv-x="817" 
d="M623 1544l14 -43q-122 -189 -324 -334l-96 23q119 209 174 377zM418 0h-256v672q0 152 -41 321l239 47q44 -112 56 -213q126 213 272 213q65 0 100 -28l-26 -242q-56 16 -115 16q-56 0 -118 -21t-111 -60v-705z" />
    <glyph glyph-name="Rcommaaccent" unicode="&#x156;" horiz-adv-x="1241" 
d="M436 0h-262v1069q0 208 -18 340h430q259 0 404 -118t145 -322q0 -143 -69.5 -240.5t-186.5 -146.5l323 -582l-299 -14q-128 244 -254 528h-213v-514zM567 1219h-131v-523h129q150 0 223.5 66.5t73.5 191.5q0 124 -71 194.5t-224 70.5zM498 -651q80 111 102 194
q-45 6 -75.5 42.5t-30.5 86.5q0 59 40.5 103.5t102.5 44.5q60 0 98.5 -41.5t38.5 -116.5q0 -167 -196 -377z" />
    <glyph glyph-name="rcommaaccent" unicode="&#x157;" horiz-adv-x="817" 
d="M418 0h-256v672q0 152 -41 321l239 47q44 -112 56 -213q126 213 272 213q65 0 100 -28l-26 -242q-56 16 -115 16q-56 0 -118 -21t-111 -60v-705zM152 -651q80 111 102 194q-45 6 -76 42.5t-31 86.5q0 59 41 103.5t103 44.5q60 0 98.5 -41.5t38.5 -116.5q0 -166 -197 -377
z" />
    <glyph glyph-name="Rcaron" unicode="&#x158;" horiz-adv-x="1241" 
d="M897 1894l70 -61q-119 -103 -242 -244l-180 -16q-120 139 -252 260l67 61q116 -55 275 -151q154 98 262 151zM436 0h-262v1069q0 208 -18 340h430q259 0 404 -118t145 -322q0 -143 -69.5 -240.5t-186.5 -146.5l323 -582l-299 -14q-128 244 -254 528h-213v-514zM567 1219
h-131v-523h129q150 0 223.5 66.5t73.5 191.5q0 124 -71 194.5t-224 70.5z" />
    <glyph glyph-name="rcaron" unicode="&#x159;" horiz-adv-x="817" 
d="M672 1579l82 -59q-135 -179 -224 -328l-180 -16q-120 197 -233 344l82 59q103 -79 241 -217q143 147 232 217zM418 0h-256v672q0 152 -41 321l239 47q44 -112 56 -213q126 213 272 213q65 0 100 -28l-26 -242q-56 16 -115 16q-56 0 -118 -21t-111 -60v-705z" />
    <glyph glyph-name="Sacute" unicode="&#x15a;" horiz-adv-x="1087" 
d="M858 1757l-14 -43q-232 -122 -547 -141l-21 65q261 129 424 256zM985 375q0 -187 -137 -291t-363 -104q-103 0 -210.5 20t-172.5 55l19 224q74 -44 180.5 -69.5t187.5 -25.5q108 0 167 46t59 126q0 39 -17.5 75t-34 58t-65 53t-67.5 41.5t-84 42.5q-7 4 -11 6t-10.5 5
t-11.5 6q-69 35 -114 64.5t-93.5 76t-73 108t-24.5 138.5q0 187 141.5 293.5t370.5 106.5q88 0 177.5 -16.5t149.5 -41.5l-33 -227q-140 80 -299 80q-114 0 -175.5 -46.5t-61.5 -127.5q0 -26 8 -50t17.5 -42t31.5 -38t37.5 -32.5t47.5 -31t49 -27.5t56 -28.5t54 -27.5
q52 -27 89 -49.5t81 -59t71 -75.5t45.5 -95t18.5 -120z" />
    <glyph glyph-name="sacute" unicode="&#x15b;" horiz-adv-x="911" 
d="M649 1544l17 -43q-121 -187 -326 -334l-94 23q119 209 174 377zM797 983l-19 -197q-151 82 -276 82q-75 0 -118.5 -30.5t-43.5 -81.5q0 -37 27 -67t70 -52.5t95 -44.5t104.5 -49.5t95.5 -61t70 -85.5t27 -117q0 -137 -111 -218t-298 -81q-90 0 -181.5 19.5t-154.5 53.5
l18 195q78 -45 167.5 -70.5t156.5 -25.5q74 0 115 30t41 78q0 37 -27 67t-70 52.5t-95 44.5t-104 49.5t-95 60.5t-70 85t-27 116q0 137 112.5 221t297.5 84q153 0 293 -57z" />
    <glyph glyph-name="Scircumflex" unicode="&#x15c;" horiz-adv-x="1087" 
d="M297 1567l-70 61q119 102 244 244l180 16q106 -127 252 -260l-69 -61q-116 55 -273 151q-154 -98 -264 -151zM985 375q0 -187 -137 -291t-363 -104q-103 0 -210.5 20t-172.5 55l19 224q74 -44 180.5 -69.5t187.5 -25.5q108 0 167 46t59 126q0 39 -17.5 75t-34 58t-65 53
t-67.5 41.5t-84 42.5q-7 4 -11 6t-10.5 5t-11.5 6q-69 35 -114 64.5t-93.5 76t-73 108t-24.5 138.5q0 187 141.5 293.5t370.5 106.5q88 0 177.5 -16.5t149.5 -41.5l-33 -227q-140 80 -299 80q-114 0 -175.5 -46.5t-61.5 -127.5q0 -26 8 -50t17.5 -42t31.5 -38t37.5 -32.5
t47.5 -31t49 -27.5t56 -28.5t54 -27.5q52 -27 89 -49.5t81 -59t71 -75.5t45.5 -95t18.5 -120z" />
    <glyph glyph-name="scircumflex" unicode="&#x15d;" horiz-adv-x="911" 
d="M225 1153l-80 57q110 146 224 328l180 16q105 -178 233 -344l-82 -57q-92 66 -241 215q-148 -152 -234 -215zM797 983l-19 -197q-151 82 -276 82q-75 0 -118.5 -30.5t-43.5 -81.5q0 -37 27 -67t70 -52.5t95 -44.5t104.5 -49.5t95.5 -61t70 -85.5t27 -117
q0 -137 -111 -218t-298 -81q-90 0 -181.5 19.5t-154.5 53.5l18 195q78 -45 167.5 -70.5t156.5 -25.5q74 0 115 30t41 78q0 37 -27 67t-70 52.5t-95 44.5t-104 49.5t-95 60.5t-70 85t-27 116q0 137 112.5 221t297.5 84q153 0 293 -57z" />
    <glyph glyph-name="Scedilla" unicode="&#x15e;" horiz-adv-x="1087" 
d="M799 -287q0 -56 -34.5 -98t-93 -66t-124 -36.5t-139.5 -14.5l2 92q95 11 147.5 40.5t52.5 74.5q0 73 -143 76l-29 47l45 152q-101 0 -209 20t-172 55l19 224q74 -44 180.5 -69.5t187.5 -25.5q108 0 167 46t59 126q0 39 -17.5 75t-34 58t-65 53t-67.5 41.5t-84 42.5
q-7 4 -11 6t-10.5 5t-11.5 6q-69 35 -114 64.5t-93.5 76t-73 108t-24.5 138.5q0 187 141.5 293.5t370.5 106.5q88 0 177.5 -16.5t149.5 -41.5l-33 -227q-140 80 -299 80q-114 0 -175.5 -46.5t-61.5 -127.5q0 -26 8 -50t17.5 -42t31.5 -38t37.5 -32.5t47.5 -31t49 -27.5
t56 -28.5t54 -27.5q52 -27 89 -49.5t81 -59t71 -75.5t45.5 -95t18.5 -120q0 -155 -96 -254t-262 -129l-37 -111q41 -6 76 -17t66 -30t49 -50t18 -71z" />
    <glyph glyph-name="scedilla" unicode="&#x15f;" horiz-adv-x="911" 
d="M702 -287q0 -56 -34.5 -98t-93 -66t-124 -36.5t-139.5 -14.5l2 92q95 11 148 40.5t53 74.5q0 73 -143 76l-31 47l47 152q-190 10 -303 73l18 195q78 -45 167.5 -70.5t156.5 -25.5q74 0 115 30t41 78q0 37 -27 67t-70 52.5t-95 44.5t-104 49.5t-95 60.5t-70 85t-27 116
q0 137 112.5 221t297.5 84q153 0 293 -57l-19 -197q-151 82 -276 82q-75 0 -118.5 -30.5t-43.5 -81.5q0 -37 27 -67t70 -52.5t95 -44.5t104.5 -49.5t95.5 -61t70 -85.5t27 -117q0 -115 -80.5 -192t-220.5 -99l-34 -107q208 -29 208 -168z" />
    <glyph glyph-name="Scaron" unicode="&#x160;" horiz-adv-x="1087" 
d="M834 1894l69 -61q-114 -100 -241 -244l-181 -16q-123 142 -254 260l70 61q112 -53 274 -151q150 96 263 151zM985 375q0 -187 -137 -291t-363 -104q-103 0 -210.5 20t-172.5 55l19 224q74 -44 180.5 -69.5t187.5 -25.5q108 0 167 46t59 126q0 39 -17.5 75t-34 58t-65 53
t-67.5 41.5t-84 42.5q-7 4 -11 6t-10.5 5t-11.5 6q-69 35 -114 64.5t-93.5 76t-73 108t-24.5 138.5q0 187 141.5 293.5t370.5 106.5q88 0 177.5 -16.5t149.5 -41.5l-33 -227q-140 80 -299 80q-114 0 -175.5 -46.5t-61.5 -127.5q0 -26 8 -50t17.5 -42t31.5 -38t37.5 -32.5
t47.5 -31t49 -27.5t56 -28.5t54 -27.5q52 -27 89 -49.5t81 -59t71 -75.5t45.5 -95t18.5 -120z" />
    <glyph glyph-name="scaron" unicode="&#x161;" horiz-adv-x="911" 
d="M700 1579l82 -59q-115 -148 -225 -328l-180 -16q-98 166 -232 344l80 59q100 -75 242 -217q140 144 233 217zM797 983l-19 -197q-151 82 -276 82q-75 0 -118.5 -30.5t-43.5 -81.5q0 -37 27 -67t70 -52.5t95 -44.5t104.5 -49.5t95.5 -61t70 -85.5t27 -117
q0 -137 -111 -218t-298 -81q-90 0 -181.5 19.5t-154.5 53.5l18 195q78 -45 167.5 -70.5t156.5 -25.5q74 0 115 30t41 78q0 37 -27 67t-70 52.5t-95 44.5t-104 49.5t-95 60.5t-70 85t-27 116q0 137 112.5 221t297.5 84q153 0 293 -57z" />
    <glyph glyph-name="Tcedilla" unicode="&#x162;" horiz-adv-x="1146" 
d="M707 0h-72l-39 -119q91 -12 150 -52t59 -116q0 -56 -34.5 -98t-93 -66t-123.5 -36.5t-138 -14.5v92q95 11 148.5 40.5t53.5 74.5q0 73 -145 76l-29 47l52 172h-54v1212q-135 -2 -409 -14l14 211h1053l14 -211q-275 12 -407 14v-1212z" />
    <glyph glyph-name="tcedilla" unicode="&#x163;" horiz-adv-x="794" 
d="M672 -287q0 -56 -34.5 -98t-93 -66t-124 -36.5t-139.5 -14.5l2 92q95 11 147.5 40.5t52.5 74.5q0 73 -145 76l-29 47l53 172q-186 69 -186 350v541l-143 2v96l149 31l64 254l160 12l30 -31l-4 -235h279l18 -29l-10 -110l-287 6v-529q0 -194 141 -194q81 0 162 49l19 -160
q-110 -73 -260 -73l-33 -99q91 -12 151 -52t60 -116z" />
    <glyph glyph-name="Tcaron" unicode="&#x164;" horiz-adv-x="1146" 
d="M842 1894l69 -61q-123 -107 -243 -244l-181 -16q-110 131 -251 260l69 61q124 -58 273 -151q147 94 264 151zM707 0h-265v1212q-135 -2 -409 -14l14 211h1053l14 -211q-275 12 -407 14v-1212z" />
    <glyph glyph-name="tcaron" unicode="&#x165;" horiz-adv-x="794" 
d="M801 1585l18 -41q-56 -214 -188 -432l-86 4q42 264 53 465zM719 881l-287 6v-529q0 -194 141 -194q81 0 162 49l19 -160q-110 -73 -262 -73q-153 0 -234.5 92.5t-81.5 277.5v541l-143 2v96l149 31l64 254l160 12l30 -31l-4 -235h279l18 -29z" />
    <glyph glyph-name="Tbar" unicode="&#x166;" horiz-adv-x="1146" 
d="M707 0h-265v637h-252v135h252v440q-135 -2 -409 -14l14 211h1053l14 -211q-275 12 -407 14v-440h251v-135h-251v-637z" />
    <glyph glyph-name="tbar" unicode="&#x167;" horiz-adv-x="794" 
d="M721 545h-289v-187q0 -194 141 -194q81 0 162 49l19 -160q-110 -73 -262 -73q-153 0 -234.5 92.5t-81.5 277.5v195h-137v135h137v211l-143 2v96l149 31l64 254l160 12l30 -31l-4 -235h279l18 -29l-10 -110l-287 6v-207h289v-135z" />
    <glyph glyph-name="Utilde" unicode="&#x168;" horiz-adv-x="1363" 
d="M535 1876q43 0 88 -18t76 -39.5t70 -39.5t73 -18q42 0 70 24.5t59 74.5l67 -11q-5 -107 -58 -184.5t-149 -77.5q-40 0 -86 18t-80 39.5t-75 39.5t-72 18q-69 0 -125 -98l-67 10q2 48 14.5 92.5t36 83.5t64.5 62.5t94 23.5zM150 1061q0 169 -21 350l258 19l27 -27v-909
q0 -151 74.5 -231.5t201.5 -80.5q126 0 199.5 80.5t73.5 231.5v616q0 157 -21 301l272 16v-952q0 -120 -42.5 -216t-116.5 -156t-171 -91.5t-210 -31.5q-112 0 -206.5 31.5t-166 92.5t-111.5 156t-40 215v586z" />
    <glyph glyph-name="utilde" unicode="&#x169;" horiz-adv-x="1165" 
d="M436 1520q42 0 87 -18.5t76.5 -40t70 -40t69.5 -18.5q38 0 63 24t52 74l74 -10q-5 -115 -56.5 -201t-142.5 -86q-39 0 -85 18.5t-80.5 40t-75 40t-68.5 18.5q-64 0 -113 -100l-74 12q3 53 15.5 101.5t35.5 91.5t62.5 68.5t89.5 25.5zM158 668q0 151 -23 340l250 32
l29 -28v-668q0 -170 143 -170q93 0 186 72v774l256 20v-761q0 -149 35 -277l-213 -22q-30 65 -53 151h-8q-145 -151 -324 -151q-129 0 -203.5 76t-74.5 208v404z" />
    <glyph glyph-name="Umacron" unicode="&#x16a;" horiz-adv-x="1363" 
d="M395 1651v151h574v-151h-574zM150 1061q0 169 -21 350l258 19l27 -27v-909q0 -151 74.5 -231.5t201.5 -80.5q126 0 199.5 80.5t73.5 231.5v616q0 157 -21 301l272 16v-952q0 -120 -42.5 -216t-116.5 -156t-171 -91.5t-210 -31.5q-112 0 -206.5 31.5t-166 92.5t-111.5 156
t-40 215v586z" />
    <glyph glyph-name="umacron" unicode="&#x16b;" horiz-adv-x="1165" 
d="M293 1288v148h584v-148h-584zM158 668q0 151 -23 340l250 32l29 -28v-668q0 -170 143 -170q93 0 186 72v774l256 20v-761q0 -149 35 -277l-213 -22q-30 65 -53 151h-8q-145 -151 -324 -151q-129 0 -203.5 76t-74.5 208v404z" />
    <glyph glyph-name="Ubreve" unicode="&#x16c;" horiz-adv-x="1363" 
d="M868 1864l105 8q-14 -130 -94 -209.5t-207 -79.5q-115 0 -193 72t-90 194l105 17q19 -52 69 -81.5t121 -29.5q66 0 116 30.5t68 78.5zM150 1061q0 169 -21 350l258 19l27 -27v-909q0 -151 74.5 -231.5t201.5 -80.5q126 0 199.5 80.5t73.5 231.5v616q0 157 -21 301l272 16
v-952q0 -120 -42.5 -216t-116.5 -156t-171 -91.5t-210 -31.5q-112 0 -206.5 31.5t-166 92.5t-111.5 156t-40 215v586z" />
    <glyph glyph-name="ubreve" unicode="&#x16d;" horiz-adv-x="1165" 
d="M768 1536l104 8q-14 -154 -94 -248t-207 -94q-115 0 -192.5 86.5t-89.5 233.5l106 16q17 -76 68.5 -120t120.5 -44q68 0 117 45t67 117zM158 668q0 151 -23 340l250 32l29 -28v-668q0 -170 143 -170q93 0 186 72v774l256 20v-761q0 -149 35 -277l-213 -22q-30 65 -53 151
h-8q-145 -151 -324 -151q-129 0 -203.5 76t-74.5 208v404z" />
    <glyph glyph-name="Uring" unicode="&#x16e;" horiz-adv-x="1363" 
d="M924 1772q0 -88 -69 -152t-167 -64q-88 0 -147.5 52.5t-59.5 128.5q0 89 72.5 153t171.5 64q86 0 142.5 -51.5t56.5 -130.5zM598 1747q0 -43 27 -71.5t71 -28.5q46 0 79.5 34t33.5 80t-25.5 73.5t-68.5 27.5q-49 0 -83 -34.5t-34 -80.5zM150 1061q0 169 -21 350l258 19
l27 -27v-909q0 -151 74.5 -231.5t201.5 -80.5q126 0 199.5 80.5t73.5 231.5v616q0 157 -21 301l272 16v-952q0 -120 -42.5 -216t-116.5 -156t-171 -91.5t-210 -31.5q-112 0 -206.5 31.5t-166 92.5t-111.5 156t-40 215v586z" />
    <glyph glyph-name="uring" unicode="&#x16f;" horiz-adv-x="1165" 
d="M825 1382q0 -88 -68.5 -151.5t-166.5 -63.5q-88 0 -146.5 52.5t-58.5 128.5q0 89 72.5 153t169.5 64q87 0 142.5 -51.5t55.5 -131.5zM500 1358q0 -43 28 -72t72 -29q45 0 78 34.5t33 80.5t-25 73.5t-68 27.5q-49 0 -83.5 -34.5t-34.5 -80.5zM158 668q0 151 -23 340
l250 32l29 -28v-668q0 -170 143 -170q93 0 186 72v774l256 20v-761q0 -149 35 -277l-213 -22q-30 65 -53 151h-8q-145 -151 -324 -151q-129 0 -203.5 76t-74.5 208v404z" />
    <glyph glyph-name="Uhungarumlaut" unicode="&#x170;" horiz-adv-x="1363" 
d="M682 1761l-12 -43q-181 -125 -439 -145l-20 65q213 128 346 256zM1151 1761l-14 -43q-179 -125 -437 -145l-20 65q207 125 344 256zM150 1061q0 169 -21 350l258 19l27 -27v-909q0 -151 74.5 -231.5t201.5 -80.5q126 0 199.5 80.5t73.5 231.5v616q0 157 -21 301l272 16
v-952q0 -120 -42.5 -216t-116.5 -156t-171 -91.5t-210 -31.5q-112 0 -206.5 31.5t-166 92.5t-111.5 156t-40 215v586z" />
    <glyph glyph-name="uhungarumlaut" unicode="&#x171;" horiz-adv-x="1165" 
d="M588 1550l16 -45q-112 -193 -280 -336l-95 25q118 200 174 377zM920 1550l16 -45q-111 -192 -281 -336l-94 25q118 200 174 377zM158 668q0 151 -23 340l250 32l29 -28v-668q0 -170 143 -170q93 0 186 72v774l256 20v-761q0 -149 35 -277l-213 -22q-30 65 -53 151h-8
q-145 -151 -324 -151q-129 0 -203.5 76t-74.5 208v404z" />
    <glyph glyph-name="Uogonek" unicode="&#x172;" horiz-adv-x="1363" 
d="M987 55q-113 -74 -168 -152t-55 -147q0 -102 96 -102q52 0 115 27l39 -93q-49 -40 -113.5 -65t-126.5 -25q-100 0 -160.5 53t-60.5 144q0 153 178 287q-18 -2 -57 -2q-112 0 -206.5 31.5t-166 92.5t-111.5 156t-40 215v586q0 169 -21 350l258 19l27 -27v-909
q0 -151 74.5 -231.5t201.5 -80.5q126 0 199.5 80.5t73.5 231.5v616q0 157 -21 301l272 16v-952q0 -146 -60 -252t-167 -168z" />
    <glyph glyph-name="uogonek" unicode="&#x173;" horiz-adv-x="1165" 
d="M158 668q0 151 -23 340l250 32l29 -28v-668q0 -170 143 -170q93 0 186 72v774l256 20v-761q0 -149 35 -277h-10l4 -2q-112 -58 -172.5 -123.5t-60.5 -128.5q0 -44 25 -69t75 -25t111 27l38 -93q-48 -40 -111.5 -65t-127.5 -25q-98 0 -159.5 52.5t-61.5 140.5q0 81 61 157
t174 136q-33 71 -51 147h-8q-145 -151 -324 -151q-129 0 -203.5 76t-74.5 208v404z" />
    <glyph glyph-name="Wcircumflex" unicode="&#x174;" horiz-adv-x="1986" 
d="M723 1567l-68 61q119 103 242 244l180 16q120 -139 252 -260l-67 -61q-116 55 -275 151q-154 -98 -264 -151zM430 -4l-393 1407l276 27l201 -777q59 -236 82 -383q26 138 100 398l195 745l254 17l201 -777q67 -239 92 -383q25 148 92 402l194 758l211 -17l17 -29
l-393 -1388h-275l-194 674q-19 71 -50 207t-43 184h-4q-59 -261 -96 -395l-192 -670h-275z" />
    <glyph glyph-name="wcircumflex" unicode="&#x175;" horiz-adv-x="1609" 
d="M592 1153l-82 57q112 144 223 328l180 16q105 -172 234 -344l-82 -57q-86 63 -242 215q-136 -144 -231 -215zM313 -4l-282 1022l262 22l117 -499q54 -179 77 -326h5q27 151 73 320l111 493h305l111 -483q4 -16 16.5 -62t19 -72t16 -64.5t16 -70.5t9.5 -59h5
q17 106 75 324l115 499l199 -16l16 -29l-281 -999h-303l-114 461q-60 217 -76 350h-4q-12 -101 -74 -350l-117 -461h-297z" />
    <glyph glyph-name="Ycircumflex" unicode="&#x176;" horiz-adv-x="1169" 
d="M344 1567l-70 61q127 111 244 244l180 16q106 -127 252 -260l-69 -61q-132 63 -273 151q-147 -94 -264 -151zM453 475l-424 928l280 27l187 -451q80 -204 110 -299h6q60 158 119 299l182 451l213 -17l17 -29l-426 -913v-471h-264v475z" />
    <glyph glyph-name="ycircumflex" unicode="&#x177;" horiz-adv-x="989" 
d="M283 1153l-80 57q105 138 223 328l180 16q98 -166 232 -344l-80 -57q-95 68 -242 215q-145 -149 -233 -215zM969 995l-307 -934q-32 -100 -65 -177.5t-83.5 -156t-109.5 -130.5t-143 -86.5t-185 -38.5l-37 225q303 16 420 317h-107l-321 1004l268 22l137 -514
q71 -222 86 -348h4q19 115 92 348l138 514l196 -16z" />
    <glyph glyph-name="Ydieresis" unicode="&#x178;" horiz-adv-x="1169" 
d="M983 1743q0 -64 -44 -108t-112 -44q-58 0 -94.5 34.5t-36.5 86.5q0 60 47 105t113 45q56 0 91.5 -33.5t35.5 -85.5zM530 1743q0 -64 -43.5 -108t-111.5 -44q-58 0 -94.5 34.5t-36.5 86.5q0 61 47 105.5t112 44.5q56 0 91.5 -33.5t35.5 -85.5zM453 475l-424 928l280 27
l187 -451q80 -204 110 -299h6q60 158 119 299l182 451l213 -17l17 -29l-426 -913v-471h-264v475z" />
    <glyph glyph-name="Zacute" unicode="&#x179;" horiz-adv-x="1126" 
d="M854 1757l-12 -43q-235 -122 -549 -141l-21 65q261 129 424 256zM104 0l-43 170l697 1024l-670 -14l16 229h883l66 -170l-688 -1022l686 12l-15 -229h-932z" />
    <glyph glyph-name="zacute" unicode="&#x17a;" horiz-adv-x="913" 
d="M659 1544l15 -43q-122 -189 -324 -334l-94 23q124 224 174 377zM59 809l15 211h743l27 -164l-510 -655l209 2q174 0 317 14l-14 -217h-764l-29 164l522 655z" />
    <glyph glyph-name="Zdotaccent" unicode="&#x17b;" horiz-adv-x="1126" 
d="M723 1751q0 -70 -48.5 -118t-123.5 -48q-64 0 -106 39t-42 96q0 65 53 112.5t126 47.5q62 0 101.5 -35.5t39.5 -93.5zM104 0l-43 170l697 1024l-670 -14l16 229h883l66 -170l-688 -1022l686 12l-15 -229h-932z" />
    <glyph glyph-name="zdotaccent" unicode="&#x17c;" horiz-adv-x="913" 
d="M625 1376q0 -72 -49 -124t-123 -52q-66 0 -107 43t-41 105q0 71 52.5 122.5t125.5 51.5q62 0 102 -40.5t40 -105.5zM59 809l15 211h743l27 -164l-510 -655l209 2q174 0 317 14l-14 -217h-764l-29 164l522 655z" />
    <glyph glyph-name="Zcaron" unicode="&#x17d;" horiz-adv-x="1126" 
d="M831 1894l68 -61q-119 -103 -242 -244l-180 -16q-106 127 -252 260l68 61q112 -53 274 -151q154 98 264 151zM104 0l-43 170l697 1024l-670 -14l16 229h883l66 -170l-688 -1022l686 12l-15 -229h-932z" />
    <glyph glyph-name="zcaron" unicode="&#x17e;" horiz-adv-x="913" 
d="M709 1579l82 -59q-135 -179 -224 -328l-180 -16q-120 197 -233 344l82 59q96 -72 241 -217q143 147 232 217zM59 809l15 211h743l27 -164l-510 -655l209 2q174 0 317 14l-14 -217h-764l-29 164l522 655z" />
    <glyph glyph-name="Schwa" unicode="&#x18f;" horiz-adv-x="1337" 
d="M113 772l45 45h794q-30 209 -142.5 311.5t-289.5 102.5q-175 0 -342 -101l-6 199q53 37 167.5 69t246.5 32q301 0 475 -186t174 -531q0 -346 -169 -539.5t-445 -193.5q-115 0 -209 36t-164 107t-108 183.5t-38 258.5q0 50 1.5 77.5t4.5 62.5t5 67zM369 543
q0 -183 71 -280t205 -97q158 0 238 131.5t80 361.5v19l-592 -29q-2 -37 -2 -106z" />
    <glyph glyph-name="florin" unicode="&#x192;" horiz-adv-x="1146" 
d="M354 604l-233 8l20 97l224 30h6l14 131q14 130 46.5 230t89 175.5t143 115t200.5 39.5q162 0 264 -64l-84 -201q-96 74 -184 74q-44 0 -78 -18.5t-56.5 -49t-39 -80.5t-26.5 -102t-19 -125l-14 -125h352l14 -26l-30 -109h-353l-69 -590q-4 -37 -7.5 -63t-12 -72t-19 -80
t-29.5 -79t-42 -77.5t-57 -66.5t-74 -55.5t-94.5 -35t-117.5 -13.5q-104 0 -213 41l45 202q92 -53 172 -53q41 0 72.5 15.5t51.5 40t34 61.5t21 72t12 79l73 674h-2z" />
    <glyph glyph-name="Nhookleft" unicode="&#x19d;" horiz-adv-x="1435" 
d="M76 -397l-76 98q164 178 164 508v860q0 175 -19 340l267 16q267 -452 336 -567q185 -303 278 -512h4q-11 132 -14.5 245t-3.5 396q0 218 -19 422l242 18l29 -28v-1399h-254q-69 114 -181 302.5t-157 262.5q-187 302 -273 486h-4q19 -175 19 -441v-401
q0 -240 -73.5 -375.5t-264.5 -230.5z" />
    <glyph glyph-name="Acaron" unicode="&#x1cd;" horiz-adv-x="1290" 
d="M913 1907l68 -60q-125 -112 -242 -245l-180 -17q-102 122 -252 262l70 60q89 -41 272 -152q173 110 264 152zM281 0h-250l381 1198q41 121 61 217l301 12l41 -34l445 -1393h-265l-108 340h-498zM512 731l-63 -201h376l-61 199q-100 341 -121 457h-8q-46 -196 -123 -455z
" />
    <glyph glyph-name="acaron" unicode="&#x1ce;" horiz-adv-x="1052" 
d="M754 1579l82 -59q-120 -155 -226 -328l-178 -16q-109 179 -233 344l80 59q96 -72 241 -217q137 141 234 217zM889 281q0 -153 45 -281l-215 -20q-34 56 -55 141h-7q-44 -60 -126 -100.5t-179 -40.5q-123 0 -195.5 65.5t-72.5 179.5q0 85 42.5 150t119.5 105.5t175 62
t218 26.5v99q0 182 -190 182q-156 0 -310 -90l-14 201q79 33 184 56t203 23q189 0 286 -87.5t97 -250.5q0 -74 -3 -218.5t-3 -202.5zM336 268q0 -58 35.5 -96.5t97.5 -38.5q93 0 170 70v276q-133 -11 -218 -65t-85 -146z" />
    <glyph glyph-name="Icaron" unicode="&#x1cf;" horiz-adv-x="610" 
d="M561 1907l70 -60q-134 -120 -244 -245l-180 -17q-102 122 -252 262l70 60q105 -48 272 -152q167 107 264 152zM436 0h-262v1059q0 194 -18 350l252 21l28 -29v-1401z" />
    <glyph glyph-name="icaron" unicode="&#x1d0;" horiz-adv-x="575" 
d="M449 1573l88 -39q-70 -161 -127 -342l-242 -16q-62 183 -137 358l88 39q78 -84 170 -223q75 128 160 223zM158 0v670q0 175 -25 340l252 30l29 -28v-1012h-256z" />
    <glyph glyph-name="Ocaron" unicode="&#x1d1;" horiz-adv-x="1447" 
d="M999 1894l70 -61q-112 -98 -244 -244l-178 -16q-123 142 -254 260l70 61q120 -56 272 -151q147 94 264 151zM1346 709q0 -174 -50 -313.5t-137 -229.5t-202 -138t-248 -48q-132 0 -243.5 48t-192 136t-126 221.5t-45.5 296.5q0 169 48.5 310t133.5 236.5t202.5 148.5
t254.5 53q275 0 440 -196t165 -525zM375 707q0 -153 38.5 -271t119 -188t192.5 -70q170 0 259 140t89 384q0 117 -20.5 212t-61 166.5t-106.5 111t-152 39.5q-167 0 -262.5 -141.5t-95.5 -382.5z" />
    <glyph glyph-name="ocaron" unicode="&#x1d2;" horiz-adv-x="1153" 
d="M821 1579l82 -59q-120 -155 -223 -328l-180 -16q-105 172 -234 344l82 59q90 -69 242 -217q131 138 231 217zM1051 516q0 -130 -39.5 -233.5t-107.5 -168.5t-155 -99.5t-186 -34.5q-202 0 -330.5 137.5t-128.5 378.5q0 127 38 231t104.5 172t154.5 104.5t189 36.5
q206 0 333.5 -142t127.5 -382zM369 516q0 -180 52 -281.5t157 -101.5q101 0 153.5 97t52.5 272q0 385 -206 385q-100 0 -154.5 -94t-54.5 -277z" />
    <glyph glyph-name="Ucaron" unicode="&#x1d3;" horiz-adv-x="1363" 
d="M950 1894l68 -61q-119 -103 -242 -244l-180 -16q-120 139 -252 260l68 61q112 -53 274 -151q154 98 264 151zM150 1061q0 169 -21 350l258 19l27 -27v-909q0 -151 74.5 -231.5t201.5 -80.5q126 0 199.5 80.5t73.5 231.5v616q0 157 -21 301l272 16v-952q0 -120 -42.5 -216
t-116.5 -156t-171 -91.5t-210 -31.5q-112 0 -206.5 31.5t-166 92.5t-111.5 156t-40 215v586z" />
    <glyph glyph-name="ucaron" unicode="&#x1d4;" horiz-adv-x="1165" 
d="M829 1579l82 -59q-115 -148 -225 -328l-180 -16q-98 166 -232 344l80 59q100 -75 242 -217q140 144 233 217zM158 668q0 151 -23 340l250 32l29 -28v-668q0 -170 143 -170q93 0 186 72v774l256 20v-761q0 -149 35 -277l-213 -22q-30 65 -53 151h-8q-145 -151 -324 -151
q-129 0 -203.5 76t-74.5 208v404z" />
    <glyph glyph-name="Udieresismacron" unicode="&#x1d5;" horiz-adv-x="1363" 
d="M395 2103v150h574v-150h-574zM1051 1743q0 -64 -44 -108t-112 -44q-58 0 -93.5 34.5t-35.5 86.5q0 61 46.5 105.5t111.5 44.5q56 0 91.5 -33.5t35.5 -85.5zM598 1743q0 -64 -43.5 -108t-112.5 -44q-58 0 -93.5 34.5t-35.5 86.5q0 61 46.5 105.5t111.5 44.5
q56 0 91.5 -33.5t35.5 -85.5zM150 1061q0 169 -21 350l258 19l27 -27v-909q0 -151 74.5 -231.5t201.5 -80.5q126 0 199.5 80.5t73.5 231.5v616q0 157 -21 301l272 16v-952q0 -120 -42.5 -216t-116.5 -156t-171 -91.5t-210 -31.5q-112 0 -206.5 31.5t-166 92.5t-111.5 156
t-40 215v586z" />
    <glyph glyph-name="udieresismacron" unicode="&#x1d6;" horiz-adv-x="1165" 
d="M293 1782v147h584v-147h-584zM506 1376q0 -68 -45 -117t-113 -49q-60 0 -97.5 40.5t-37.5 97.5q0 66 48.5 115.5t115.5 49.5q57 0 93 -38t36 -99zM954 1376q0 -68 -44.5 -117t-112.5 -49q-60 0 -97.5 40.5t-37.5 97.5q0 67 48 116t115 49q57 0 93 -38t36 -99zM158 668
q0 151 -23 340l250 32l29 -28v-668q0 -170 143 -170q93 0 186 72v774l256 20v-761q0 -149 35 -277l-213 -22q-30 65 -53 151h-8q-145 -151 -324 -151q-129 0 -203.5 76t-74.5 208v404z" />
    <glyph glyph-name="Udieresisacute" unicode="&#x1d7;" horiz-adv-x="1363" 
d="M973 2208l-12 -41q-238 -126 -549 -142l-21 64q254 125 424 258zM1051 1743q0 -64 -44 -108t-112 -44q-58 0 -93.5 34.5t-35.5 86.5q0 61 46.5 105.5t111.5 44.5q56 0 91.5 -33.5t35.5 -85.5zM598 1743q0 -64 -43.5 -108t-112.5 -44q-58 0 -93.5 34.5t-35.5 86.5
q0 61 46.5 105.5t111.5 44.5q56 0 91.5 -33.5t35.5 -85.5zM150 1061q0 169 -21 350l258 19l27 -27v-909q0 -151 74.5 -231.5t201.5 -80.5q126 0 199.5 80.5t73.5 231.5v616q0 157 -21 301l272 16v-952q0 -120 -42.5 -216t-116.5 -156t-171 -91.5t-210 -31.5
q-112 0 -206.5 31.5t-166 92.5t-111.5 156t-40 215v586z" />
    <glyph glyph-name="udieresisacute" unicode="&#x1d8;" horiz-adv-x="1165" 
d="M778 2038l17 -43q-121 -187 -326 -334l-94 22q119 209 174 377zM506 1376q0 -68 -45 -117t-113 -49q-60 0 -97.5 40.5t-37.5 97.5q0 66 48.5 115.5t115.5 49.5q57 0 93 -38t36 -99zM954 1376q0 -68 -44.5 -117t-112.5 -49q-60 0 -97.5 40.5t-37.5 97.5q0 67 48 116
t115 49q57 0 93 -38t36 -99zM158 668q0 151 -23 340l250 32l29 -28v-668q0 -170 143 -170q93 0 186 72v774l256 20v-761q0 -149 35 -277l-213 -22q-30 65 -53 151h-8q-145 -151 -324 -151q-129 0 -203.5 76t-74.5 208v404z" />
    <glyph glyph-name="Udieresiscaron" unicode="&#x1d9;" horiz-adv-x="1363" 
d="M950 2345l68 -59q-111 -97 -242 -246l-180 -17q-133 154 -252 263l68 59q115 -52 274 -152q151 100 264 152zM1051 1743q0 -64 -44 -108t-112 -44q-58 0 -93.5 34.5t-35.5 86.5q0 61 46.5 105.5t111.5 44.5q56 0 91.5 -33.5t35.5 -85.5zM598 1743q0 -64 -43.5 -108
t-112.5 -44q-58 0 -93.5 34.5t-35.5 86.5q0 61 46.5 105.5t111.5 44.5q56 0 91.5 -33.5t35.5 -85.5zM150 1061q0 169 -21 350l258 19l27 -27v-909q0 -151 74.5 -231.5t201.5 -80.5q126 0 199.5 80.5t73.5 231.5v616q0 157 -21 301l272 16v-952q0 -120 -42.5 -216
t-116.5 -156t-171 -91.5t-210 -31.5q-112 0 -206.5 31.5t-166 92.5t-111.5 156t-40 215v586z" />
    <glyph glyph-name="udieresiscaron" unicode="&#x1da;" horiz-adv-x="1165" 
d="M829 2073l82 -60q-118 -152 -225 -327l-180 -17q-98 166 -232 344l80 60q96 -72 242 -218q144 148 233 218zM506 1376q0 -68 -45 -117t-113 -49q-60 0 -97.5 40.5t-37.5 97.5q0 66 48.5 115.5t115.5 49.5q57 0 93 -38t36 -99zM954 1376q0 -68 -44.5 -117t-112.5 -49
q-60 0 -97.5 40.5t-37.5 97.5q0 67 48 116t115 49q57 0 93 -38t36 -99zM158 668q0 151 -23 340l250 32l29 -28v-668q0 -170 143 -170q93 0 186 72v774l256 20v-761q0 -149 35 -277l-213 -22q-30 65 -53 151h-8q-145 -151 -324 -151q-129 0 -203.5 76t-74.5 208v404z" />
    <glyph glyph-name="Udieresisgrave" unicode="&#x1db;" horiz-adv-x="1363" 
d="M952 2025q-311 16 -549 142l-12 41l158 139q170 -133 424 -258zM1051 1743q0 -64 -44 -108t-112 -44q-58 0 -93.5 34.5t-35.5 86.5q0 61 46.5 105.5t111.5 44.5q56 0 91.5 -33.5t35.5 -85.5zM598 1743q0 -64 -43.5 -108t-112.5 -44q-58 0 -93.5 34.5t-35.5 86.5
q0 61 46.5 105.5t111.5 44.5q56 0 91.5 -33.5t35.5 -85.5zM150 1061q0 169 -21 350l258 19l27 -27v-909q0 -151 74.5 -231.5t201.5 -80.5q126 0 199.5 80.5t73.5 231.5v616q0 157 -21 301l272 16v-952q0 -120 -42.5 -216t-116.5 -156t-171 -91.5t-210 -31.5
q-112 0 -206.5 31.5t-166 92.5t-111.5 156t-40 215v586z" />
    <glyph glyph-name="udieresisgrave" unicode="&#x1dc;" horiz-adv-x="1165" 
d="M698 1663q-196 141 -323 334l14 43l232 22q55 -169 174 -374zM506 1376q0 -68 -45 -117t-113 -49q-60 0 -97.5 40.5t-37.5 97.5q0 66 48.5 115.5t115.5 49.5q57 0 93 -38t36 -99zM954 1376q0 -68 -44.5 -117t-112.5 -49q-60 0 -97.5 40.5t-37.5 97.5q0 67 48 116t115 49
q57 0 93 -38t36 -99zM158 668q0 151 -23 340l250 32l29 -28v-668q0 -170 143 -170q93 0 186 72v774l256 20v-761q0 -149 35 -277l-213 -22q-30 65 -53 151h-8q-145 -151 -324 -151q-129 0 -203.5 76t-74.5 208v404z" />
    <glyph glyph-name="Gcaron" unicode="&#x1e6;" horiz-adv-x="1314" 
d="M979 1907l68 -60q-125 -112 -242 -245l-180 -17q-117 135 -252 262l67 60q95 -43 275 -152q173 110 264 152zM1171 645l29 -29l-6 -546q-88 -41 -205 -65.5t-231 -24.5q-310 0 -483 184t-173 508q0 344 189.5 551t507.5 207q215 0 368 -80l-45 -228q-140 97 -311 97
q-198 0 -317 -137.5t-119 -389.5q0 -233 105.5 -370.5t305.5 -137.5q65 0 162 17v24q0 217 -24 400z" />
    <glyph glyph-name="gcaron" unicode="&#x1e7;" horiz-adv-x="1050" 
d="M750 1579l81 -59q-120 -155 -223 -328l-180 -16q-109 179 -233 344l79 59q100 -75 242 -217q137 141 234 217zM215 129q0 108 109 182q-108 39 -172 126.5t-64 207.5q0 166 115 280.5t305 114.5q153 0 240 -67q35 58 101 89.5t138 31.5l31 -23l-6 -170h-209
q45 -36 74.5 -98t29.5 -146q0 -161 -112 -268.5t-297 -107.5q-38 0 -72 6q-16 -32 -16 -62q0 -45 24 -64t80 -24l184 -12q143 -8 231.5 -75t88.5 -193q0 -166 -148 -275.5t-395 -109.5q-204 0 -327 74t-123 190q0 70 45 120.5t108 71.5l94 -41q-28 -36 -28 -75
q0 -88 71.5 -150.5t192.5 -62.5q113 0 183.5 52.5t70.5 137.5q0 135 -180 154l-168 16q-96 9 -147.5 53.5t-51.5 116.5zM662 659q0 248 -160 248q-168 0 -168 -248q0 -118 42.5 -180.5t125.5 -62.5q160 0 160 243z" />
    <glyph glyph-name="Oogonek" unicode="&#x1ea;" horiz-adv-x="1447" 
d="M1346 709q0 -229 -84 -394.5t-230 -251.5q-117 -85 -167 -154t-50 -140q0 -54 27 -84.5t78 -30.5q42 0 106 27l39 -93q-48 -40 -112.5 -65t-129.5 -25q-98 0 -158.5 53.5t-60.5 147.5q0 75 48 149t136 136q-54 -4 -79 -4q-132 0 -243.5 48t-192 136t-126 221.5
t-45.5 296.5q0 169 48.5 310t133.5 236.5t202.5 148.5t254.5 53q275 0 440 -196t165 -525zM375 707q0 -153 38.5 -271t119 -188t192.5 -70q170 0 259 140t89 384q0 117 -20.5 212t-61 166.5t-106.5 111t-152 39.5q-167 0 -262.5 -141.5t-95.5 -382.5z" />
    <glyph glyph-name="oogonek" unicode="&#x1eb;" horiz-adv-x="1153" 
d="M848 68q-207 -159 -207 -299q0 -107 98 -107q50 0 113 27l37 -92q-47 -41 -111.5 -66t-130.5 -25q-96 0 -157.5 51.5t-61.5 135.5q0 145 184 289q-14 -2 -49 -2q-202 0 -330.5 137.5t-128.5 378.5q0 127 38 231t104.5 172t154.5 104.5t189 36.5q206 0 333.5 -142
t127.5 -382q0 -154 -54 -267.5t-149 -182.5v2zM369 516q0 -180 52 -281.5t157 -101.5q101 0 153.5 97t52.5 272q0 385 -206 385q-100 0 -154.5 -94t-54.5 -277z" />
    <glyph glyph-name="Gacute" unicode="&#x1f4;" horiz-adv-x="1314" 
d="M1001 1769l-12 -43q-235 -122 -549 -141l-20 66q251 124 424 256zM1171 645l29 -29l-6 -546q-88 -41 -205 -65.5t-231 -24.5q-310 0 -483 184t-173 508q0 344 189.5 551t507.5 207q215 0 368 -80l-45 -228q-140 97 -311 97q-198 0 -317 -137.5t-119 -389.5
q0 -233 105.5 -370.5t305.5 -137.5q65 0 162 17v24q0 217 -24 400z" />
    <glyph glyph-name="gacute" unicode="&#x1f5;" horiz-adv-x="1050" 
d="M700 1544l15 -43q-121 -187 -326 -334l-94 23q119 209 174 377zM215 129q0 108 109 182q-108 39 -172 126.5t-64 207.5q0 166 115 280.5t305 114.5q153 0 240 -67q35 58 101 89.5t138 31.5l31 -23l-6 -170h-209q45 -36 74.5 -98t29.5 -146q0 -161 -112 -268.5
t-297 -107.5q-38 0 -72 6q-16 -32 -16 -62q0 -45 24 -64t80 -24l184 -12q143 -8 231.5 -75t88.5 -193q0 -166 -148 -275.5t-395 -109.5q-204 0 -327 74t-123 190q0 70 45 120.5t108 71.5l94 -41q-28 -36 -28 -75q0 -88 71.5 -150.5t192.5 -62.5q113 0 183.5 52.5t70.5 137.5
q0 135 -180 154l-168 16q-96 9 -147.5 53.5t-51.5 116.5zM662 659q0 248 -160 248q-168 0 -168 -248q0 -118 42.5 -180.5t125.5 -62.5q160 0 160 243z" />
    <glyph glyph-name="Aringacute" unicode="&#x1fa;" horiz-adv-x="1290" 
d="M936 2292l-12 -43q-238 -123 -549 -142l-21 66q249 123 426 256zM866 1763q0 -90 -68.5 -153.5t-166.5 -63.5q-89 0 -148 53t-59 130q0 87 72.5 151t171.5 64q86 0 142 -51.5t56 -129.5zM541 1737q0 -42 27.5 -70.5t70.5 -28.5q45 0 78 34.5t33 80.5q0 45 -25.5 72.5
t-67.5 27.5q-49 0 -82.5 -34t-33.5 -82zM281 0h-250l381 1198q41 121 61 217l301 12l41 -34l445 -1393h-265l-108 340h-498zM512 731l-63 -201h376l-61 199q-100 341 -121 457h-8q-46 -196 -123 -455z" />
    <glyph glyph-name="aringacute" unicode="&#x1fb;" horiz-adv-x="1052" 
d="M725 2089l14 -43q-123 -191 -323 -334l-97 23q124 218 175 376zM750 1382q0 -88 -69 -151.5t-167 -63.5q-88 0 -146.5 52.5t-58.5 128.5q0 89 72.5 153t169.5 64q87 0 143 -51.5t56 -131.5zM424 1358q0 -43 28 -72t72 -29q45 0 78 34.5t33 80.5t-25 73.5t-67 27.5
q-49 0 -84 -34.5t-35 -80.5zM889 281q0 -153 45 -281l-215 -20q-34 56 -55 141h-7q-44 -60 -126 -100.5t-179 -40.5q-123 0 -195.5 65.5t-72.5 179.5q0 85 42.5 150t119.5 105.5t175 62t218 26.5v99q0 182 -190 182q-156 0 -310 -90l-14 201q79 33 184 56t203 23
q189 0 286 -87.5t97 -250.5q0 -74 -3 -218.5t-3 -202.5zM336 268q0 -58 35.5 -96.5t97.5 -38.5q93 0 170 70v276q-133 -11 -218 -65t-85 -146z" />
    <glyph glyph-name="AEacute" unicode="&#x1fc;" horiz-adv-x="1800" 
d="M1300 1757l-12 -43q-235 -122 -549 -141l-20 65q261 129 424 256zM281 0h-250l534 1198q28 61 94 211h879l29 -29l-4 -176l-541 13l55 -433l457 9l-6 -191l-428 10l55 -422l578 15v-205h-818l-41 340h-444zM602 731l-88 -201h336l-25 199q-24 232 -32 457h-9
q-61 -169 -182 -455z" />
    <glyph glyph-name="aeacute" unicode="&#x1fd;" horiz-adv-x="1603" 
d="M1010 1544l16 -43q-121 -187 -326 -334l-94 23q124 224 174 377zM1509 514l-30 -31h-574q13 -161 93 -240t212 -79q128 0 254 74l17 -170q-53 -36 -141.5 -62t-194.5 -26q-141 0 -250.5 52t-175.5 150q-57 -88 -156.5 -145t-214.5 -57q-119 0 -191.5 66t-72.5 181
q0 84 42.5 148.5t119.5 105t175 62t218 26.5v99q0 182 -195 182q-74 0 -156 -24.5t-149 -65.5l-14 201q79 33 184 56t207 23q209 0 301 -106q127 106 301 106q181 0 287 -114t106 -299q0 -76 -2 -113zM1106 887q-86 0 -142.5 -82.5t-62.5 -226.5l359 14q0 11 1 34t1 36
q0 103 -40 164t-116 61zM336 268q0 -58 35.5 -96.5t97.5 -38.5q60 0 117.5 33.5t95.5 87.5q-42 98 -45 225q-132 -11 -216.5 -65t-84.5 -146z" />
    <glyph glyph-name="Oslashacute" unicode="&#x1fe;" horiz-adv-x="1447" 
d="M1024 1757l-14 -43q-232 -122 -547 -141l-21 65q261 129 424 256zM1346 709q0 -174 -50 -313.5t-137 -229.5t-202 -138t-248 -48q-247 0 -406 153l-133 -151l-100 88l147 168q-115 179 -115 444q0 169 48.5 310t133.5 236.5t202.5 148.5t254.5 53q229 0 387 -142l123 142
l103 -87l-137 -157q129 -189 129 -477zM375 707q0 -144 33 -250l565 651q-87 123 -240 123q-167 0 -262.5 -141.5t-95.5 -382.5zM1073 702q0 160 -37 275l-569 -655q94 -144 258 -144q170 0 259 140t89 384z" />
    <glyph glyph-name="oslashacute" unicode="&#x1ff;" horiz-adv-x="1153" 
d="M772 1544l14 -43q-123 -191 -323 -334l-96 23q119 209 174 377zM1051 516q0 -130 -39.5 -233.5t-107.5 -168.5t-155 -99.5t-186 -34.5q-177 0 -299 104l-110 -119l-93 88l121 129q-78 131 -78 314q0 127 38 231t104.5 172t154.5 104.5t189 36.5q179 0 295 -104l112 119
l95 -86l-123 -131q82 -135 82 -322zM369 516q0 -75 8 -127l360 389q-51 109 -159 109q-100 0 -154.5 -94t-54.5 -277zM784 502q0 72 -6 131l-362 -387q52 -113 162 -113q101 0 153.5 97t52.5 272z" />
    <glyph glyph-name="Scommaaccent" unicode="&#x218;" horiz-adv-x="1087" 
d="M985 375q0 -187 -137 -291t-363 -104q-103 0 -210.5 20t-172.5 55l19 224q74 -44 180.5 -69.5t187.5 -25.5q108 0 167 46t59 126q0 39 -17.5 75t-34 58t-65 53t-67.5 41.5t-84 42.5q-7 4 -11 6t-10.5 5t-11.5 6q-69 35 -114 64.5t-93.5 76t-73 108t-24.5 138.5
q0 187 141.5 293.5t370.5 106.5q88 0 177.5 -16.5t149.5 -41.5l-33 -227q-140 80 -299 80q-114 0 -175.5 -46.5t-61.5 -127.5q0 -26 8 -50t17.5 -42t31.5 -38t37.5 -32.5t47.5 -31t49 -27.5t56 -28.5t54 -27.5q52 -27 89 -49.5t81 -59t71 -75.5t45.5 -95t18.5 -120z
M428 -651q77 102 104 194q-46 6 -77 42.5t-31 86.5q0 59 41 103.5t104 44.5q59 0 98.5 -41.5t39.5 -116.5q0 -163 -199 -377z" />
    <glyph glyph-name="scommaaccent" unicode="&#x219;" horiz-adv-x="911" 
d="M797 983l-19 -197q-151 82 -276 82q-75 0 -118.5 -30.5t-43.5 -81.5q0 -37 27 -67t70 -52.5t95 -44.5t104.5 -49.5t95.5 -61t70 -85.5t27 -117q0 -137 -111 -218t-298 -81q-90 0 -181.5 19.5t-154.5 53.5l18 195q78 -45 167.5 -70.5t156.5 -25.5q74 0 115 30t41 78
q0 37 -27 67t-70 52.5t-95 44.5t-104 49.5t-95 60.5t-70 85t-27 116q0 137 112.5 221t297.5 84q153 0 293 -57zM332 -651q80 111 102 194q-46 6 -76 42t-30 87q0 59 40.5 103.5t102.5 44.5q60 0 98.5 -41.5t38.5 -116.5q0 -167 -196 -377z" />
    <glyph glyph-name="Tcommaaccent" unicode="&#x21a;" horiz-adv-x="1146" 
d="M707 0h-265v1212q-135 -2 -409 -14l14 211h1053l14 -211q-275 12 -407 14v-1212zM434 -651q79 104 105 194q-46 6 -77.5 42.5t-31.5 86.5q0 59 41 103.5t104 44.5q59 0 98.5 -41.5t39.5 -116.5q0 -169 -199 -377z" />
    <glyph glyph-name="tcommaaccent" unicode="&#x21b;" horiz-adv-x="794" 
d="M719 881l-287 6v-529q0 -194 141 -194q81 0 162 49l19 -160q-110 -73 -262 -73q-153 0 -234.5 92.5t-81.5 277.5v541l-143 2v96l149 31l64 254l160 12l30 -31l-4 -235h279l18 -29zM301 -651q76 106 102 194q-46 6 -77 42.5t-31 86.5q0 59 41 103.5t104 44.5
q60 0 99 -41.5t39 -116.5q0 -169 -199 -377z" />
    <glyph glyph-name="Ymacron" unicode="&#x232;" horiz-adv-x="1169" 
d="M326 1651v151h575v-151h-575zM453 475l-424 928l280 27l187 -451q80 -204 110 -299h6q60 158 119 299l182 451l213 -17l17 -29l-426 -913v-471h-264v475z" />
    <glyph glyph-name="ymacron" unicode="&#x233;" horiz-adv-x="989" 
d="M221 1288v148h584v-148h-584zM969 995l-307 -934q-32 -100 -65 -177.5t-83.5 -156t-109.5 -130.5t-143 -86.5t-185 -38.5l-37 225q303 16 420 317h-107l-321 1004l268 22l137 -514q71 -222 86 -348h4q19 115 92 348l138 514l196 -16z" />
    <glyph glyph-name="dotlessj" unicode="&#x237;" horiz-adv-x="579" 
d="M113 -528l-97 94q144 167 144 442v662q0 169 -23 340l250 30l29 -28v-992q0 -207 -68.5 -331.5t-234.5 -216.5z" />
    <glyph glyph-name="schwa" unicode="&#x259;" horiz-adv-x="1071" 
d="M94 506l31 31h575q-6 165 -66 239t-183 74q-159 0 -312 -88l-16 186q62 37 170.5 64.5t216.5 27.5q221 0 339 -124.5t118 -364.5q0 -138 -37.5 -248t-103.5 -179.5t-152.5 -106.5t-186.5 -37q-182 0 -288.5 114t-106.5 299q0 76 2 113zM342 358q0 -103 40.5 -164
t117.5 -61q85 0 138 77.5t62 231.5l-356 -14q0 -7 -1 -31t-1 -39z" />
    <glyph glyph-name="nhookleft" unicode="&#x272;" horiz-adv-x="1181" 
d="M113 -528l-97 94q144 167 144 442v664q0 164 -41 321l241 47q34 -90 46 -149q155 149 333 149q131 0 205 -81.5t74 -231.5v-727h-256v678q0 184 -152 184q-89 0 -194 -76v-766q0 -207 -68.5 -331.5t-234.5 -216.5z" />
    <glyph glyph-name="circumflex" unicode="&#x2c6;" horiz-adv-x="829" 
d="M178 1153l-82 59q131 172 223 328l181 16q120 -197 233 -344l-82 -59q-90 66 -241 217q-143 -147 -232 -217z" />
    <glyph glyph-name="caron" unicode="&#x2c7;" horiz-adv-x="829" 
d="M651 1581l82 -57q-112 -144 -223 -328l-180 -16q-105 172 -234 344l82 57q86 -63 242 -215q123 130 231 215z" />
    <glyph glyph-name="breve" unicode="&#x2d8;" horiz-adv-x="776" 
d="M575 1538l105 10q-14 -155 -94.5 -249.5t-206.5 -94.5q-117 0 -195 87t-88 235l105 14q19 -77 69 -120.5t119 -43.5q67 0 117 45t69 117z" />
    <glyph glyph-name="dotaccent" unicode="&#x2d9;" horiz-adv-x="512" 
d="M416 1376q0 -72 -50 -124t-122 -52q-66 0 -107 43t-41 105q0 71 52.5 122.5t125.5 51.5q62 0 102 -40.5t40 -105.5z" />
    <glyph glyph-name="ring" unicode="&#x2da;" horiz-adv-x="632" 
d="M537 1380q0 -90 -69 -153.5t-167 -63.5q-88 0 -146.5 53t-58.5 130q0 87 72.5 151t169.5 64q87 0 143 -51.5t56 -129.5zM211 1354q0 -42 28 -70.5t72 -28.5q45 0 78 34.5t33 80.5q0 45 -25 72.5t-67 27.5q-49 0 -84 -34.5t-35 -81.5z" />
    <glyph glyph-name="ogonek" unicode="&#x2db;" horiz-adv-x="747" 
d="M598 0q-112 -58 -171.5 -123.5t-59.5 -128.5q0 -94 98 -94q50 0 113 27l36 -93q-46 -40 -110.5 -65t-128.5 -25q-98 0 -158.5 52.5t-60.5 140.5q0 97 85.5 186t241.5 150z" />
    <glyph glyph-name="tilde" unicode="&#x2dc;" horiz-adv-x="854" 
d="M297 1520q41 0 85.5 -18.5t76 -40t70.5 -40t71 -18.5q38 0 63 24t52 74l73 -10q-5 -115 -56 -201t-142 -86q-39 0 -85.5 18.5t-81 40t-75 40t-69.5 18.5q-61 0 -113 -100l-72 12q2 53 14.5 101.5t36 91.5t62.5 68.5t90 25.5z" />
    <glyph glyph-name="hungarumlaut" unicode="&#x2dd;" horiz-adv-x="843" 
d="M455 1550l14 -45q-107 -190 -279 -336l-96 25q118 200 174 377zM786 1550l15 -45q-107 -190 -279 -336l-96 25q118 200 174 377z" />
    <glyph glyph-name="Delta" unicode="&#x394;" horiz-adv-x="1275" 
d="M496 1413h288l461 -1372l-4 -41h-1206l-4 41zM315 193h596l-297 927z" />
    <glyph glyph-name="Omega" unicode="&#x3a9;" horiz-adv-x="1579" 
d="M659 0h-557l-34 184l28 29l436 -86q-155 90 -254.5 271t-99.5 380q0 178 80.5 327.5t224 237t318.5 87.5t313 -88.5t211.5 -235.5t73.5 -324q0 -206 -100 -386t-257 -271l441 88l28 -29l-34 -184h-559l-27 115q106 110 170.5 273t64.5 353q0 134 -36.5 243.5t-113.5 178
t-183 68.5q-104 0 -182.5 -65.5t-119 -176.5t-40.5 -250q0 -184 66 -345t171 -279z" />
    <glyph glyph-name="mu" unicode="&#x3bc;" horiz-adv-x="1165" 
d="M158 672q0 147 -23 336l250 32l29 -28v-668q0 -170 141 -170q95 0 188 72v774l256 20v-761q0 -149 35 -277l-213 -22q-30 65 -53 151h-8q-139 -145 -309 -151q-48 -3 -91 12q30 -89 50 -266.5t26 -208.5l-250 -33l-28 29v1159z" />
    <glyph glyph-name="pi" unicode="&#x3c0;" horiz-adv-x="1290" 
d="M209 0v842l-203 -2l37 184l1190 16l16 -28l-47 -158l-147 -2v-533q0 -65 14.5 -94.5t52.5 -29.5q30 0 82 18l-14 -213q-88 -20 -164 -20q-104 0 -165.5 65.5t-61.5 200.5v604l-334 -4v-846h-256z" />
    <glyph glyph-name="Ddotbelow" unicode="&#x1e0c;" horiz-adv-x="1404" 
d="M1303 713q0 -168 -54.5 -303.5t-150.5 -225t-227.5 -137t-286.5 -47.5h-410v1069q0 208 -18 340h460q311 0 499 -187t188 -509zM600 1219h-164v-1029h166q215 0 321.5 136t106.5 374q0 233 -111 376t-319 143zM879 -322q0 -72 -49 -123t-123 -51q-66 0 -107 42t-41 104
q0 70 53 122t125 52q63 0 102.5 -40t39.5 -106z" />
    <glyph glyph-name="ddotbelow" unicode="&#x1e0d;" horiz-adv-x="1179" 
d="M735 1522l250 30l29 -28v-1248q0 -146 47 -276l-221 -20q-26 51 -56 139h-4q-101 -139 -280 -139q-177 0 -286.5 133.5t-109.5 363.5q0 266 146 414.5t379 148.5q61 0 129 -14v156q0 190 -23 340zM369 510q0 -172 63 -274.5t174 -102.5q90 0 152 66v690q-58 10 -101 10
q-136 0 -212 -100t-76 -289zM748 -322q0 -72 -49.5 -123t-123.5 -51q-65 0 -106 42.5t-41 103.5q0 70 53 122t125 52q63 0 102.5 -40t39.5 -106z" />
    <glyph glyph-name="Hdotbelow" unicode="&#x1e24;" horiz-adv-x="1454" 
d="M436 0h-262v1059q0 194 -18 350l252 21l28 -29v-606h580v264q0 185 -19 350l254 21l29 -29v-1401h-264v604h-580v-604zM887 -322q0 -72 -49 -123t-123 -51q-65 0 -106.5 42.5t-41.5 103.5q0 70 53 122t125 52q63 0 102.5 -40t39.5 -106z" />
    <glyph glyph-name="hdotbelow" unicode="&#x1e25;" horiz-adv-x="1171" 
d="M408 0h-256v1182q0 175 -25 340l250 30l31 -28v-621q153 137 321 137q132 0 206.5 -82t74.5 -231v-727h-258v678q0 184 -150 184q-96 0 -194 -76v-786zM752 -322q0 -71 -49.5 -122.5t-122.5 -51.5q-66 0 -107 42t-41 104q0 71 52.5 122.5t125.5 51.5q62 0 102 -40.5
t40 -105.5z" />
    <glyph glyph-name="Ndotaccent" unicode="&#x1e44;" horiz-adv-x="1445" 
d="M862 1763q0 -70 -48 -117t-124 -47q-65 0 -107 38t-42 96q0 65 53.5 112t126.5 47q62 0 101.5 -35.5t39.5 -93.5zM758 858q185 -303 278 -512h6q-13 130 -16.5 242.5t-3.5 398.5q0 228 -18 422l241 18l29 -28v-1399h-254q-69 114 -181 302.5t-157 262.5
q-182 295 -272 486h-4q18 -166 18 -441v-610h-250v1069q0 184 -18 340l266 16q267 -452 336 -567z" />
    <glyph glyph-name="ndotaccent" unicode="&#x1e45;" horiz-adv-x="1181" 
d="M737 1376q0 -72 -50 -124t-122 -52q-66 0 -106.5 43t-40.5 105q0 71 52 122.5t124 51.5q63 0 103 -40t40 -106zM418 0h-256v672q0 152 -41 321l239 47q34 -90 46 -149q155 149 333 149q132 0 206.5 -82t74.5 -231v-727h-258v678q0 184 -150 184q-92 0 -194 -76v-786z" />
    <glyph glyph-name="Rdotbelow" unicode="&#x1e5a;" horiz-adv-x="1241" 
d="M436 0h-262v1069q0 208 -18 340h430q259 0 404 -118t145 -322q0 -143 -69.5 -240.5t-186.5 -146.5l323 -582l-299 -14q-128 244 -254 528h-213v-514zM567 1219h-131v-523h129q150 0 223.5 66.5t73.5 191.5q0 124 -71 194.5t-224 70.5zM799 -322q0 -71 -49.5 -122.5
t-122.5 -51.5q-66 0 -107 42t-41 104q0 71 52 122.5t124 51.5q63 0 103.5 -40t40.5 -106z" />
    <glyph glyph-name="rdotbelow" unicode="&#x1e5b;" horiz-adv-x="817" 
d="M418 0h-256v672q0 152 -41 321l239 47q44 -112 56 -213q126 213 272 213q65 0 100 -28l-26 -242q-56 16 -115 16q-56 0 -118 -21t-111 -60v-705zM453 -322q0 -71 -49.5 -122.5t-122.5 -51.5q-66 0 -107 42t-41 104q0 71 52 122.5t124 51.5q63 0 103.5 -40t40.5 -106z" />
    <glyph glyph-name="Sdotbelow" unicode="&#x1e62;" horiz-adv-x="1087" 
d="M985 375q0 -187 -137 -291t-363 -104q-103 0 -210.5 20t-172.5 55l19 224q74 -44 180.5 -69.5t187.5 -25.5q108 0 167 46t59 126q0 39 -17.5 75t-34 58t-65 53t-67.5 41.5t-84 42.5q-7 4 -11 6t-10.5 5t-11.5 6q-69 35 -114 64.5t-93.5 76t-73 108t-24.5 138.5
q0 187 141.5 293.5t370.5 106.5q88 0 177.5 -16.5t149.5 -41.5l-33 -227q-140 80 -299 80q-114 0 -175.5 -46.5t-61.5 -127.5q0 -26 8 -50t17.5 -42t31.5 -38t37.5 -32.5t47.5 -31t49 -27.5t56 -28.5t54 -27.5q52 -27 89 -49.5t81 -59t71 -75.5t45.5 -95t18.5 -120z
M729 -322q0 -72 -49 -123t-123 -51q-66 0 -106.5 42t-40.5 104q0 71 52.5 122.5t125.5 51.5q63 0 102 -40t39 -106z" />
    <glyph glyph-name="sdotbelow" unicode="&#x1e63;" horiz-adv-x="911" 
d="M797 983l-19 -197q-151 82 -276 82q-75 0 -118.5 -30.5t-43.5 -81.5q0 -37 27 -67t70 -52.5t95 -44.5t104.5 -49.5t95.5 -61t70 -85.5t27 -117q0 -137 -111 -218t-298 -81q-90 0 -181.5 19.5t-154.5 53.5l18 195q78 -45 167.5 -70.5t156.5 -25.5q74 0 115 30t41 78
q0 37 -27 67t-70 52.5t-95 44.5t-104 49.5t-95 60.5t-70 85t-27 116q0 137 112.5 221t297.5 84q153 0 293 -57zM633 -322q0 -71 -49.5 -122.5t-122.5 -51.5q-66 0 -107 42t-41 104q0 71 52 122.5t124 51.5q63 0 103.5 -40t40.5 -106z" />
    <glyph glyph-name="Tdotbelow" unicode="&#x1e6c;" horiz-adv-x="1146" 
d="M707 0h-265v1212q-135 -2 -409 -14l14 211h1053l14 -211q-275 12 -407 14v-1212zM735 -322q0 -72 -49 -123t-123 -51q-66 0 -106.5 42t-40.5 104q0 70 53 122t125 52q63 0 102 -40t39 -106z" />
    <glyph glyph-name="tdotbelow" unicode="&#x1e6d;" horiz-adv-x="794" 
d="M719 881l-287 6v-529q0 -194 141 -194q81 0 162 49l19 -160q-110 -73 -262 -73q-153 0 -234.5 92.5t-81.5 277.5v541l-143 2v96l149 31l64 254l160 12l30 -31l-4 -235h279l18 -29zM600 -322q0 -72 -49 -123t-121 -51q-66 0 -106.5 42t-40.5 104q0 71 52 122.5t124 51.5
q63 0 102 -40t39 -106z" />
    <glyph glyph-name="Wgrave" unicode="&#x1e80;" horiz-adv-x="1986" 
d="M1264 1573q-314 19 -549 141l-13 43l158 137q163 -127 424 -256zM430 -4l-393 1407l276 27l201 -777q59 -236 82 -383q26 138 100 398l195 745l254 17l201 -777q67 -239 92 -383q25 148 92 402l194 758l211 -17l17 -29l-393 -1388h-275l-194 674q-19 71 -50 207t-43 184
h-4q-59 -261 -96 -395l-192 -670h-275z" />
    <glyph glyph-name="wgrave" unicode="&#x1e81;" horiz-adv-x="1609" 
d="M936 1169q-202 145 -326 334l17 43l229 25q51 -158 174 -377zM313 -4l-282 1022l262 22l117 -499q54 -179 77 -326h5q27 151 73 320l111 493h305l111 -483q4 -16 16.5 -62t19 -72t16 -64.5t16 -70.5t9.5 -59h5q17 106 75 324l115 499l199 -16l16 -29l-281 -999h-303
l-114 461q-60 217 -76 350h-4q-12 -101 -74 -350l-117 -461h-297z" />
    <glyph glyph-name="Wacute" unicode="&#x1e82;" horiz-adv-x="1986" 
d="M1284 1757l-12 -43q-235 -122 -549 -141l-21 65q261 129 424 256zM430 -4l-393 1407l276 27l201 -777q59 -236 82 -383q26 138 100 398l195 745l254 17l201 -777q67 -239 92 -383q25 148 92 402l194 758l211 -17l17 -29l-393 -1388h-275l-194 674q-19 71 -50 207t-43 184
h-4q-59 -261 -96 -395l-192 -670h-275z" />
    <glyph glyph-name="wacute" unicode="&#x1e83;" horiz-adv-x="1609" 
d="M1016 1544l14 -43q-123 -191 -323 -334l-97 23q119 209 174 377zM313 -4l-282 1022l262 22l117 -499q54 -179 77 -326h5q27 151 73 320l111 493h305l111 -483q4 -16 16.5 -62t19 -72t16 -64.5t16 -70.5t9.5 -59h5q17 106 75 324l115 499l199 -16l16 -29l-281 -999h-303
l-114 461q-60 217 -76 350h-4q-12 -101 -74 -350l-117 -461h-297z" />
    <glyph glyph-name="Wdieresis" unicode="&#x1e84;" horiz-adv-x="1986" 
d="M1362 1743q0 -64 -43.5 -108t-112.5 -44q-58 0 -93.5 34.5t-35.5 86.5q0 61 46.5 105.5t111.5 44.5q56 0 91.5 -33.5t35.5 -85.5zM911 1743q0 -64 -44 -108t-113 -44q-58 0 -93.5 34.5t-35.5 86.5q0 61 46 105.5t111 44.5q56 0 92.5 -33.5t36.5 -85.5zM430 -4l-393 1407
l276 27l201 -777q59 -236 82 -383q26 138 100 398l195 745l254 17l201 -777q67 -239 92 -383q25 148 92 402l194 758l211 -17l17 -29l-393 -1388h-275l-194 674q-19 71 -50 207t-43 184h-4q-59 -261 -96 -395l-192 -670h-275z" />
    <glyph glyph-name="wdieresis" unicode="&#x1e85;" horiz-adv-x="1609" 
d="M741 1376q0 -67 -44.5 -116.5t-110.5 -49.5q-61 0 -98 40t-37 98q0 66 47.5 115.5t113.5 49.5q57 0 93 -38t36 -99zM1190 1376q0 -67 -45 -116.5t-111 -49.5q-61 0 -98 40t-37 98q0 66 48 115.5t114 49.5q57 0 93 -38t36 -99zM313 -4l-282 1022l262 22l117 -499
q54 -179 77 -326h5q27 151 73 320l111 493h305l111 -483q4 -16 16.5 -62t19 -72t16 -64.5t16 -70.5t9.5 -59h5q17 106 75 324l115 499l199 -16l16 -29l-281 -999h-303l-114 461q-60 217 -76 350h-4q-12 -101 -74 -350l-117 -461h-297z" />
    <glyph glyph-name="Zdotbelow" unicode="&#x1e92;" horiz-adv-x="1126" 
d="M104 0l-43 170l697 1024l-670 -14l16 229h883l66 -170l-688 -1022l686 12l-15 -229h-932zM733 -322q0 -71 -49.5 -122.5t-122.5 -51.5q-66 0 -106.5 42t-40.5 104q0 71 52.5 122.5t125.5 51.5q62 0 101.5 -40.5t39.5 -105.5z" />
    <glyph glyph-name="zdotbelow" unicode="&#x1e93;" horiz-adv-x="913" 
d="M59 809l15 211h743l27 -164l-510 -655l209 2q174 0 317 14l-14 -217h-764l-29 164l522 655zM616 -322q0 -72 -49 -123t-123 -51q-65 0 -106 42.5t-41 103.5q0 70 53 122t125 52q63 0 102 -40t39 -106z" />
    <glyph glyph-name="Germandbls" unicode="&#x1e9e;" horiz-adv-x="1368" 
d="M166 295v639q0 234 144.5 365t381.5 131q179 0 309 -78t173 -222l-302 -344q89 -36 154.5 -74t122.5 -90.5t87 -121t30 -152.5q0 -173 -116 -270.5t-300 -97.5q-161 0 -277 55v223q51 -34 115.5 -54t120.5 -20q88 0 137 43.5t49 124.5q0 97 -84 166t-305 166v68l283 358
q-28 58 -81 87.5t-118 29.5q-121 0 -190.5 -82.5t-69.5 -229.5v-706q0 -66 -15 -132.5t-44 -96.5l-242 20q37 112 37 295z" />
    <glyph glyph-name="Adotbelow" unicode="&#x1ea0;" horiz-adv-x="1290" 
d="M281 0h-250l381 1198q41 121 61 217l301 12l41 -34l445 -1393h-265l-108 340h-498zM512 731l-63 -201h376l-61 199q-100 341 -121 457h-8q-46 -196 -123 -455zM805 -322q0 -72 -49 -123t-123 -51q-66 0 -107 42t-41 104q0 70 53.5 122t125.5 52q63 0 102 -40t39 -106z
" />
    <glyph glyph-name="adotbelow" unicode="&#x1ea1;" horiz-adv-x="1052" 
d="M889 281q0 -153 45 -281l-215 -20q-34 56 -55 141h-7q-44 -60 -126 -100.5t-179 -40.5q-123 0 -195.5 65.5t-72.5 179.5q0 85 42.5 150t119.5 105.5t175 62t218 26.5v99q0 182 -190 182q-156 0 -310 -90l-14 201q79 33 184 56t203 23q189 0 286 -87.5t97 -250.5
q0 -74 -3 -218.5t-3 -202.5zM336 268q0 -58 35.5 -96.5t97.5 -38.5q93 0 170 70v276q-133 -11 -218 -65t-85 -146zM682 -322q0 -72 -49 -123t-123 -51q-65 0 -106.5 42.5t-41.5 103.5q0 70 53.5 122t125.5 52q63 0 102 -40t39 -106z" />
    <glyph glyph-name="Edotbelow" unicode="&#x1eb8;" horiz-adv-x="1099" 
d="M1032 205v-205h-858v1069q0 208 -18 340h833l29 -29l-6 -176l-576 15v-435l482 9l-7 -191l-475 10v-422zM799 -322q0 -71 -49.5 -122.5t-122.5 -51.5q-66 0 -107 42t-41 104q0 71 52 122.5t124 51.5q63 0 103.5 -40t40.5 -106z" />
    <glyph glyph-name="edotbelow" unicode="&#x1eb9;" horiz-adv-x="1071" 
d="M977 514l-31 -31h-575q15 -161 95 -240t212 -79q128 0 254 74l16 -170q-54 -36 -142 -62t-196 -26q-231 0 -368.5 135.5t-137.5 380.5q0 124 38 227.5t103.5 172.5t153 106.5t187.5 37.5q181 0 287 -114t106 -299q0 -76 -2 -113zM573 887q-87 0 -142.5 -82t-61.5 -227
l356 14q2 23 2 74q0 99 -40 160t-114 61zM741 -322q0 -72 -49 -123t-123 -51q-66 0 -106.5 42t-40.5 104q0 71 52.5 122.5t125.5 51.5q63 0 102 -40t39 -106z" />
    <glyph glyph-name="Etilde" unicode="&#x1ebc;" horiz-adv-x="1099" 
d="M453 1888q54 0 109 -28.5t105.5 -57t92.5 -28.5t70.5 24.5t56.5 73.5l67 -10q-5 -108 -57.5 -185.5t-146.5 -77.5q-41 0 -87.5 18t-81 39.5t-75.5 39.5t-72 18q-71 0 -125 -98l-67 10q2 48 14.5 92.5t36.5 83.5t65 62.5t95 23.5zM1032 205v-205h-858v1069q0 208 -18 340
h833l29 -29l-6 -176l-576 15v-435l482 9l-7 -191l-475 10v-422z" />
    <glyph glyph-name="etilde" unicode="&#x1ebd;" horiz-adv-x="1071" 
d="M401 1520q42 0 87 -18.5t77 -40t70.5 -40t69.5 -18.5q38 0 62.5 24t51.5 74l76 -10q-4 -73 -25.5 -135.5t-67.5 -107t-108 -44.5q-39 0 -85 18.5t-80.5 40t-75 40t-68.5 18.5q-64 0 -113 -100l-73 12q3 53 15.5 101.5t35.5 91.5t62 68.5t89 25.5zM977 514l-31 -31h-575
q15 -161 95 -240t212 -79q128 0 254 74l16 -170q-54 -36 -142 -62t-196 -26q-231 0 -368.5 135.5t-137.5 380.5q0 124 38 227.5t103.5 172.5t153 106.5t187.5 37.5q181 0 287 -114t106 -299q0 -76 -2 -113zM573 887q-87 0 -142.5 -82t-61.5 -227l356 14q2 23 2 74
q0 99 -40 160t-114 61z" />
    <glyph glyph-name="Idotbelow" unicode="&#x1eca;" horiz-adv-x="610" 
d="M436 0h-262v1059q0 194 -18 350l252 21l28 -29v-1401zM467 -322q0 -72 -49 -123t-123 -51q-66 0 -107 42t-41 104q0 71 53 122.5t126 51.5q62 0 101.5 -40.5t39.5 -105.5z" />
    <glyph glyph-name="idotbelow" unicode="&#x1ecb;" horiz-adv-x="575" 
d="M444 1376q0 -72 -49 -124t-123 -52q-66 0 -106.5 43t-40.5 105q0 71 52.5 122.5t125.5 51.5q62 0 101.5 -40.5t39.5 -105.5zM158 0v670q0 175 -25 340l252 30l29 -28v-1012h-256zM455 -322q0 -71 -49.5 -122.5t-122.5 -51.5q-66 0 -107 42t-41 104q0 71 52 122.5
t124 51.5q63 0 103.5 -40t40.5 -106z" />
    <glyph glyph-name="Odotbelow" unicode="&#x1ecc;" horiz-adv-x="1447" 
d="M1346 709q0 -174 -50 -313.5t-137 -229.5t-202 -138t-248 -48q-132 0 -243.5 48t-192 136t-126 221.5t-45.5 296.5q0 169 48.5 310t133.5 236.5t202.5 148.5t254.5 53q275 0 440 -196t165 -525zM375 707q0 -153 38.5 -271t119 -188t192.5 -70q170 0 259 140t89 384
q0 117 -20.5 212t-61 166.5t-106.5 111t-152 39.5q-167 0 -262.5 -141.5t-95.5 -382.5zM901 -322q0 -72 -49 -123t-121 -51q-66 0 -106.5 42t-40.5 104q0 71 52 122.5t124 51.5q63 0 102 -40t39 -106z" />
    <glyph glyph-name="odotbelow" unicode="&#x1ecd;" horiz-adv-x="1153" 
d="M1051 516q0 -130 -39.5 -233.5t-107.5 -168.5t-155 -99.5t-186 -34.5q-202 0 -330.5 137.5t-128.5 378.5q0 127 38 231t104.5 172t154.5 104.5t189 36.5q206 0 333.5 -142t127.5 -382zM369 516q0 -180 52 -281.5t157 -101.5q101 0 153.5 97t52.5 272q0 385 -206 385
q-100 0 -154.5 -94t-54.5 -277zM737 -322q0 -71 -49.5 -122.5t-122.5 -51.5q-66 0 -106.5 42t-40.5 104q0 71 52 122.5t124 51.5q63 0 103 -40t40 -106z" />
    <glyph glyph-name="Udotbelow" unicode="&#x1ee4;" horiz-adv-x="1363" 
d="M150 1061q0 169 -21 350l258 19l27 -27v-909q0 -151 74.5 -231.5t201.5 -80.5q126 0 199.5 80.5t73.5 231.5v616q0 157 -21 301l272 16v-952q0 -120 -42.5 -216t-116.5 -156t-171 -91.5t-210 -31.5q-112 0 -206.5 31.5t-166 92.5t-111.5 156t-40 215v586zM842 -322
q0 -72 -49 -123t-123 -51q-66 0 -107 42t-41 104q0 71 52.5 122.5t125.5 51.5q62 0 102 -40.5t40 -105.5z" />
    <glyph glyph-name="udotbelow" unicode="&#x1ee5;" horiz-adv-x="1165" 
d="M158 668q0 151 -23 340l250 32l29 -28v-668q0 -170 143 -170q93 0 186 72v774l256 20v-761q0 -149 35 -277l-213 -22q-30 65 -53 151h-8q-145 -151 -324 -151q-129 0 -203.5 76t-74.5 208v404zM743 -322q0 -72 -49 -123t-123 -51q-65 0 -106 42.5t-41 103.5q0 70 53 122
t125 52q63 0 102 -40t39 -106z" />
    <glyph glyph-name="Ygrave" unicode="&#x1ef2;" horiz-adv-x="1169" 
d="M885 1573q-314 19 -549 141l-12 43l155 137q173 -133 426 -256zM453 475l-424 928l280 27l187 -451q80 -204 110 -299h6q60 158 119 299l182 451l213 -17l17 -29l-426 -913v-471h-264v475z" />
    <glyph glyph-name="ygrave" unicode="&#x1ef3;" horiz-adv-x="989" 
d="M627 1169q-198 142 -324 334l14 43l232 25q56 -172 174 -377zM969 995l-307 -934q-32 -100 -65 -177.5t-83.5 -156t-109.5 -130.5t-143 -86.5t-185 -38.5l-37 225q303 16 420 317h-107l-321 1004l268 22l137 -514q71 -222 86 -348h4q19 115 92 348l138 514l196 -16z" />
    <glyph glyph-name="Ytilde" unicode="&#x1ef8;" horiz-adv-x="1169" 
d="M467 1876q43 0 88 -18t76 -39.5t70 -39.5t73 -18q42 0 70 25t57 74l68 -11q-3 -107 -56 -184.5t-149 -77.5q-41 0 -87 18t-80 39.5t-75 39.5t-73 18q-70 0 -123 -98l-68 10q2 48 14 92.5t35.5 83.5t64.5 62.5t95 23.5zM453 475l-424 928l280 27l187 -451
q80 -204 110 -299h6q60 158 119 299l182 451l213 -17l17 -29l-426 -913v-471h-264v475z" />
    <glyph glyph-name="ytilde" unicode="&#x1ef9;" horiz-adv-x="989" 
d="M365 1520q42 0 87 -18.5t76.5 -40t70 -40t69.5 -18.5q38 0 62.5 24t51.5 74l74 -10q-5 -115 -56.5 -201t-142.5 -86q-39 0 -85 18.5t-80.5 40t-75 40t-68.5 18.5q-63 0 -115 -100l-71 12q3 53 15.5 101.5t35.5 91.5t62.5 68.5t89.5 25.5zM969 995l-307 -934
q-32 -100 -65 -177.5t-83.5 -156t-109.5 -130.5t-143 -86.5t-185 -38.5l-37 225q303 16 420 317h-107l-321 1004l268 22l137 -514q71 -222 86 -348h4q19 115 92 348l138 514l196 -16z" />
    <glyph glyph-name="figurespace" unicode="&#x2007;" 
 />
    <glyph glyph-name="endash" unicode="&#x2013;" horiz-adv-x="1134" 
d="M61 537v90h1012v-90h-1012z" />
    <glyph glyph-name="emdash" unicode="&#x2014;" horiz-adv-x="1755" 
d="M61 537v90h1633v-90h-1633z" />
    <glyph glyph-name="quoteleft" unicode="&#x2018;" horiz-adv-x="538" 
d="M455 1507q-115 -170 -146 -307q53 -8 89 -49.5t36 -99.5q0 -70 -50 -122t-120 -52q-68 0 -113 46.5t-45 131.5t47.5 191.5t105 185.5t118.5 143z" />
    <glyph glyph-name="quoteright" unicode="&#x2019;" horiz-adv-x="538" 
d="M84 924q114 167 145 307q-54 8 -89.5 49.5t-35.5 99.5q0 70 50 122t120 52q68 0 112 -46t44 -132q0 -124 -84 -269.5t-184 -250.5z" />
    <glyph glyph-name="quotesinglbase" unicode="&#x201a;" horiz-adv-x="538" 
d="M84 -326q113 167 145 308q-55 8 -90 49t-35 100q0 70 50 122t120 52q68 0 112 -46t44 -132q0 -124 -84.5 -271.5t-183.5 -248.5z" />
    <glyph glyph-name="quotedblleft" unicode="&#x201c;" horiz-adv-x="999" 
d="M455 1507q-115 -170 -146 -307q53 -8 89 -49.5t36 -99.5q0 -70 -50 -122t-120 -52q-68 0 -113 46.5t-45 131.5t47.5 191.5t105 185.5t118.5 143zM915 1507q-116 -177 -143 -307q53 -8 88 -49.5t35 -99.5q0 -70 -49.5 -122t-120.5 -52q-68 0 -112 46t-44 132
q0 123 84.5 268t184.5 252z" />
    <glyph glyph-name="quotedblright" unicode="&#x201d;" horiz-adv-x="999" 
d="M547 924q116 176 143 309q-53 8 -88 48.5t-35 98.5q0 71 49.5 122.5t120.5 51.5q68 0 112 -46t44 -130q0 -85 -47.5 -192t-104 -186t-116.5 -142zM84 924q113 166 145 309q-55 8 -90 48.5t-35 98.5q0 71 50 122.5t120 51.5q68 0 112 -46t44 -130q0 -124 -84.5 -271.5
t-183.5 -248.5z" />
    <glyph glyph-name="quotedblbase" unicode="&#x201e;" horiz-adv-x="993" 
d="M84 -326q113 167 145 308q-55 8 -90 49t-35 100q0 70 50 122t120 52q68 0 112 -46t44 -132q0 -124 -84.5 -271.5t-183.5 -248.5zM539 -326q113 167 145 308q-55 8 -90 49t-35 100q0 70 49.5 122t120.5 52q68 0 112 -46t44 -132q0 -124 -85 -271t-184 -249z" />
    <glyph glyph-name="dagger" unicode="&#x2020;" horiz-adv-x="1034" 
d="M584 0l-131 -2l-15 22l-61 302l78 608l-336 -33l-6 6q-13 97 -13 168l25 14l326 -30l-60 356l6 8q121 11 230 11l16 -17l-61 -360l333 32l7 -6q12 -90 12 -168l-23 -14l-331 33l77 -608l-61 -302z" />
    <glyph glyph-name="daggerdbl" unicode="&#x2021;" horiz-adv-x="1034" 
d="M397 -14l-16 14l74 369l-330 -54l-25 17q0 94 13 196l6 7l338 -54q-35 175 -35 230q0 30 5 64t16 89.5t14 71.5l-338 -53l-6 6q-13 102 -13 196l25 17l332 -53l-76 362l6 8q132 11 250 11l14 -17l-73 -364l337 53l7 -6q12 -94 12 -197l-23 -16l-333 51q3 -17 11 -56
t12 -61t7.5 -52.5t3.5 -53.5q0 -24 -3.5 -55t-8 -54t-12 -62t-10.5 -59l333 54l23 -17q0 -102 -12 -196l-7 -7l-337 54l73 -365l-6 -8q-113 -10 -248 -10z" />
    <glyph glyph-name="bullet" unicode="&#x2022;" horiz-adv-x="968" 
d="M475 238q-117 0 -192 74t-78 180q-3 124 87 215.5t218 91.5q109 0 180 -71t74 -183q3 -125 -78.5 -216t-210.5 -91z" />
    <glyph glyph-name="ellipsis" unicode="&#x2026;" horiz-adv-x="1501" 
d="M434 145q0 -70 -48.5 -117.5t-117.5 -47.5q-68 0 -113.5 45t-45.5 112q0 69 50.5 118.5t121.5 49.5q66 0 109.5 -45t43.5 -115zM913 145q0 -70 -48 -117.5t-117 -47.5q-70 0 -115 45t-45 112q0 69 50.5 118.5t121.5 49.5q66 0 109.5 -45t43.5 -115zM1391 145
q0 -70 -48.5 -117.5t-117.5 -47.5t-114.5 45.5t-45.5 111.5q0 69 50.5 118.5t121.5 49.5q66 0 110 -45t44 -115z" />
    <glyph glyph-name="perthousand" unicode="&#x2030;" horiz-adv-x="2942" 
d="M883 1022q0 -199 -116 -309.5t-284 -110.5q-167 0 -273 107.5t-106 294.5q0 198 114.5 312t287.5 114q169 0 273 -110.5t104 -297.5zM1509 1430l-868 -1450h-113l867 1450h114zM324 1022q0 -140 42.5 -218.5t127.5 -78.5q83 0 125.5 75.5t42.5 209.5q0 141 -41.5 219
t-126.5 78q-83 0 -126.5 -72t-43.5 -213zM1868 260q0 -199 -116 -309.5t-284 -110.5q-167 0 -272.5 107t-105.5 295q0 198 114 312t287 114q169 0 273 -110.5t104 -297.5zM2841 260q0 -101 -32.5 -182.5t-88.5 -132.5t-128 -78t-153 -27q-167 0 -273 107.5t-106 294.5
q0 197 115 311.5t287 114.5q169 0 274 -110.5t105 -297.5zM1309 260q0 -140 42.5 -218.5t127.5 -78.5q83 0 125.5 75.5t42.5 209.5q0 297 -168 297q-81 0 -125.5 -72.5t-44.5 -212.5zM2281 260q0 -140 42 -218.5t128 -78.5q83 0 125.5 75.5t42.5 209.5q0 141 -41.5 219
t-126.5 78q-83 0 -126.5 -72t-43.5 -213z" />
    <glyph glyph-name="guilsinglleft" unicode="&#x2039;" horiz-adv-x="591" 
d="M94 565v70q158 133 350 385l66 -29q-62 -194 -205 -391q144 -202 205 -393l-66 -29q-191 250 -350 387z" />
    <glyph glyph-name="guilsinglright" unicode="&#x203a;" horiz-adv-x="591" 
d="M498 565q-166 -140 -351 -387l-67 29q67 202 207 393q-139 187 -207 391l67 29q186 -248 351 -385v-70z" />
    <glyph glyph-name="fraction" unicode="&#x2044;" horiz-adv-x="1236" 
d="M1110 1434l-870 -1454h-113l868 1454h115z" />
    <glyph glyph-name="zerosuperior" unicode="&#x2070;" horiz-adv-x="942" 
d="M844 1141q0 -105 -31 -189.5t-84 -137.5t-121 -81t-145 -28q-160 0 -261.5 112t-101.5 309q0 204 108 323.5t273 119.5q163 0 263 -116.5t100 -311.5zM303 1141q0 -324 170 -324q166 0 166 316q0 321 -168 321t-168 -313z" />
    <glyph glyph-name="foursuperior" unicode="&#x2074;" horiz-adv-x="858" 
d="M76 1034l340 522l217 13l22 -19v-499q41 2 119 10l-14 -146h-105v-194h-188v194h-369zM238 1051v-4q16 0 89 1t140 1v157q0 156 8 226h-2z" />
    <glyph glyph-name="fivesuperior" unicode="&#x2075;" horiz-adv-x="808" 
d="M119 733l18 129q37 -13 94.5 -22t98.5 -9q79 0 129.5 38t50.5 106q0 66 -45 98.5t-117 32.5q-92 0 -174 -33l-29 17v462h324q125 0 213 13l-12 -156h-365v-188q53 12 121 12q124 0 205.5 -64.5t81.5 -181.5q0 -133 -105.5 -207.5t-271.5 -74.5q-119 0 -217 28z" />
    <glyph glyph-name="sixsuperior" unicode="&#x2076;" horiz-adv-x="847" 
d="M438 705q-150 0 -244 94.5t-94 273.5q0 218 132 357t352 139q74 0 112 -15l-16 -133q-62 15 -96 15q-48 0 -93.5 -16.5t-84 -48.5t-66 -84t-35.5 -118h4q70 45 183 45q120 0 193 -63t73 -174q0 -126 -92 -199t-228 -73zM430 1102q-36 0 -72.5 -13.5t-54.5 -35.5
q2 -124 30.5 -179t94.5 -55q61 0 94 39.5t33 104.5q0 64 -32.5 101.5t-92.5 37.5z" />
    <glyph glyph-name="sevensuperior" unicode="&#x2077;" horiz-adv-x="737" 
d="M70 1389l16 163h586l24 -20v-102q-323 -314 -338 -709h-204q13 188 116.5 375.5t243.5 308.5v4h-178q-155 0 -266 -20z" />
    <glyph glyph-name="eightsuperior" unicode="&#x2078;" horiz-adv-x="858" 
d="M420 705q-149 0 -239.5 60.5t-90.5 156.5q0 82 61 140.5t148 82.5v4q-172 88 -172 207q0 92 87 152.5t222 60.5q139 0 217 -62t78 -143q0 -61 -47 -115.5t-123 -87.5v-4q42 -17 75 -36t65 -45t49.5 -61t17.5 -75q0 -97 -94 -166t-254 -69zM432 1462q-52 0 -87.5 -26.5
t-35.5 -71.5q0 -42 37.5 -80t102.5 -65q45 30 72.5 69t27.5 76q0 44 -33.5 71t-83.5 27zM410 1073q-59 -24 -96.5 -62.5t-37.5 -86.5q0 -51 42 -83t108 -32t109.5 30.5t44.5 82.5q3 90 -170 151z" />
    <glyph glyph-name="ninesuperior" unicode="&#x2079;" horiz-adv-x="847" 
d="M90 1284q0 130 92.5 207.5t229.5 77.5q146 0 241 -93.5t95 -271.5q0 -100 -32.5 -190t-92 -159t-151 -109.5t-202.5 -40.5q-64 0 -100 10l-4 131q62 -8 96 -8q118 0 189.5 62.5t91.5 184.5q-73 -49 -170 -49q-129 0 -206 65.5t-77 182.5zM293 1294q0 -68 34.5 -106.5
t98.5 -38.5q76 0 117 49q-5 120 -35.5 183t-95.5 63q-55 0 -87 -41.5t-32 -108.5z" />
    <glyph glyph-name="zeroinferior" unicode="&#x2080;" horiz-adv-x="942" 
d="M844 272q0 -105 -31 -189.5t-84 -137.5t-121 -81t-145 -28q-160 0 -261.5 112.5t-101.5 309.5q0 204 108 323t273 119q163 0 263 -116.5t100 -311.5zM303 272q0 -323 170 -323q166 0 166 315q0 322 -168 322t-168 -314z" />
    <glyph glyph-name="oneinferior" unicode="&#x2081;" horiz-adv-x="563" 
d="M215 520h-2l-135 -18l-29 110l338 93l23 -21v-827h-197v495q0 119 2 168z" />
    <glyph glyph-name="twoinferior" unicode="&#x2082;" horiz-adv-x="772" 
d="M100 -143l-22 129q391 262 391 444q0 64 -39 102.5t-106 38.5q-108 0 -226 -88l-18 146q54 32 133 54t158 22q132 0 216.5 -64.5t84.5 -169.5q0 -64 -36 -132.5t-98 -129.5t-129.5 -112t-144.5 -97h191q110 0 215 12l-15 -155h-555z" />
    <glyph glyph-name="threeinferior" unicode="&#x2083;" horiz-adv-x="763" 
d="M92 635q49 26 126.5 45.5t148.5 19.5q118 0 195 -52t77 -134q0 -69 -56 -129t-149 -86q115 -14 181.5 -69.5t66.5 -143.5q0 -110 -104 -180t-269 -70q-125 0 -227 29l18 123q96 -29 201 -29q79 0 128.5 32t49.5 89q0 113 -209 113q-23 0 -106 -9v123q119 14 195.5 58
t76.5 108q0 43 -33 68.5t-94 25.5q-102 0 -207 -57z" />
    <glyph glyph-name="fourinferior" unicode="&#x2084;" horiz-adv-x="858" 
d="M76 170l340 522l217 13l22 -19v-500q22 1 119 11l-14 -146h-105v-194h-188v194h-369zM238 186v-4q16 0 89 1t140 1v158q0 155 8 225h-2z" />
    <glyph glyph-name="fiveinferior" unicode="&#x2085;" horiz-adv-x="808" 
d="M119 -135l18 129q37 -13 94.5 -22t98.5 -9q80 0 130 37.5t50 105.5q0 66 -45 99t-117 33q-92 0 -174 -33l-29 16v463h324q131 0 213 12l-12 -155h-365v-189q57 13 121 13q124 0 205.5 -64.5t81.5 -181.5q0 -133 -105.5 -208t-271.5 -75q-116 0 -217 29z" />
    <glyph glyph-name="sixinferior" unicode="&#x2086;" horiz-adv-x="847" 
d="M438 -164q-149 0 -243.5 95t-94.5 274q0 218 132 356.5t352 138.5q77 0 112 -14l-16 -133q-58 14 -96 14q-65 0 -122.5 -27.5t-101.5 -89.5t-55 -149h4q70 45 183 45q120 0 193 -63t73 -174q0 -126 -92 -199.5t-228 -73.5zM430 233q-36 0 -72.5 -13.5t-54.5 -35.5
q2 -123 30 -178t95 -55q61 0 94 39t33 104q0 64 -32.5 101.5t-92.5 37.5z" />
    <glyph glyph-name="seveninferior" unicode="&#x2087;" horiz-adv-x="737" 
d="M70 524l16 164h586l24 -20v-103q-323 -314 -338 -708h-204q13 188 116.5 375.5t243.5 308.5v4h-178q-149 0 -266 -21z" />
    <glyph glyph-name="eightinferior" unicode="&#x2088;" horiz-adv-x="858" 
d="M420 -164q-149 0 -239.5 60.5t-90.5 156.5q0 82 61 140.5t148 82.5v5q-77 40 -124.5 88.5t-47.5 117.5q0 92 87 152.5t222 60.5q139 0 217 -61.5t78 -142.5q0 -61 -47 -115.5t-123 -87.5v-4q42 -17 75 -36t65 -45t49.5 -61t17.5 -75q0 -97 -94 -166.5t-254 -69.5z
M432 594q-52 0 -87.5 -26.5t-35.5 -71.5q0 -42 38 -80.5t102 -65.5q45 30 72.5 69t27.5 77q0 44 -33.5 71t-83.5 27zM410 205q-58 -24 -96 -63t-38 -87q0 -51 42 -82.5t108 -31.5t109.5 30.5t44.5 81.5q3 91 -170 152z" />
    <glyph glyph-name="nineinferior" unicode="&#x2089;" horiz-adv-x="847" 
d="M90 416q0 130 92.5 207t229.5 77q70 0 130 -22.5t106.5 -66t73 -114.5t26.5 -161q0 -100 -32.5 -190t-91.5 -159.5t-151 -110t-203 -40.5q-64 0 -100 10l-4 131q62 -8 96 -8q118 0 189.5 63t91.5 185q-73 -49 -170 -49q-129 0 -206 65.5t-77 182.5zM293 426
q0 -68 34.5 -106.5t98.5 -38.5q76 0 117 49q-5 120 -35.5 182.5t-95.5 62.5q-55 0 -87 -41t-32 -108z" />
    <glyph glyph-name="euro" unicode="&#x20ac;" horiz-adv-x="1191" 
d="M61 508l9 98h118q-2 25 -2 72q0 36 4 102h-102l8 101h109q46 255 203.5 402t386.5 147q90 0 174 -23.5t145 -63.5l-49 -227q-140 96 -266 96q-122 0 -207 -86.5t-117 -244.5h432l-8 -101h-436q-4 -50 -4 -80q0 -32 4 -94h418l-9 -98h-393q33 -149 118.5 -230t215.5 -81
q73 0 148 26t133 68l30 -215q-146 -96 -346 -96q-236 0 -387.5 138t-191.5 390h-138z" />
    <glyph glyph-name="trademark" unicode="&#x2122;" horiz-adv-x="1187" 
d="M1030 1413l17 -10l49 -461h-113l-18 168q-12 170 -13 193h-4q-13 -92 -43 -195l-45 -166h-127l-45 166q-24 85 -45 197h-2q-8 -142 -14 -197l-19 -166h-94l51 467l154 4l45 -143q26 -110 41 -221h2q22 155 41 221l43 139zM336 942h-117v381q-47 0 -137 -4l6 88h381l8 -88
q-94 4 -141 4v-381z" />
    <glyph glyph-name="partialdiff" unicode="&#x2202;" horiz-adv-x="1368" 
d="M637 1552q149 0 264.5 -62t186 -170t106 -246t35.5 -298q0 -118 -18.5 -227t-63.5 -214.5t-113 -182.5t-175.5 -124.5t-242.5 -47.5q-227 0 -356 125t-129 327q0 225 153 368.5t416 143.5q135 0 252 -45q-23 216 -121 336.5t-253 120.5q-83 0 -165.5 -33t-140.5 -82
l-88 166q79 62 201 103.5t252 41.5zM401 442q0 -124 62.5 -194t169.5 -70q149 0 237 134t88 384q-102 52 -225 52q-165 0 -248.5 -82.5t-83.5 -223.5z" />
    <glyph glyph-name="product" unicode="&#x220f;" horiz-adv-x="1546" 
d="M1444 1380l-10 -170h-191v-1497h-256v1497h-432v-1497h-256v1497h-190l-7 195l1313 4z" />
    <glyph glyph-name="summation" unicode="&#x2211;" horiz-adv-x="1193" 
d="M96 -94l486 667l-486 666l45 170h971l29 -29l-6 -176l-760 17l448 -615v-67l-446 -615l762 17l-2 -205h-996z" />
    <glyph glyph-name="minus" unicode="&#x2212;" 
d="M1063 641h-922v133q348 10 924 10l14 -14z" />
    <glyph glyph-name="radical" unicode="&#x221a;" horiz-adv-x="1286" 
d="M1239 1507l-442 -1507h-277l-299 827h-198v193h380l267 -834l342 1366l211 -16z" />
    <glyph glyph-name="infinity" unicode="&#x221e;" horiz-adv-x="1724" 
d="M1581 555q0 -164 -99.5 -269.5t-256.5 -105.5q-121 0 -205.5 60.5t-155.5 167.5q-154 -228 -377 -228q-154 0 -250 103.5t-96 267.5t100 269.5t257 105.5q118 0 203.5 -59.5t158.5 -166.5q154 226 375 226q154 0 250 -103.5t96 -267.5zM1210 786q-82 0 -153.5 -55
t-122.5 -149l2 -4q34 -61 59.5 -100t62 -79.5t78.5 -60t91 -19.5q90 0 147.5 65t57.5 169q0 103 -63 168t-159 65zM293 559q0 -106 61.5 -171.5t157.5 -65.5q80 0 154.5 56.5t124.5 145.5l-3 4q-26 42 -37.5 59.5t-35 52.5t-38 50t-38 38t-43.5 32.5t-46 17.5t-54 8
q-90 0 -146.5 -62.5t-56.5 -164.5z" />
    <glyph glyph-name="integral" unicode="&#x222b;" horiz-adv-x="933" 
d="M340 -356q63 0 92 35t29 114q0 72 -95 603q-12 66 -18 102q-78 434 -92 555q-8 73 -8 123q0 187 97 281.5t269 94.5q135 0 267 -57l-21 -197q-135 82 -246 82q-63 0 -92.5 -34.5t-29.5 -110.5q0 -12 1 -26.5t3.5 -36t5 -41.5t8.5 -57t11.5 -68t15 -87.5t17.5 -103
t22 -128t26 -148.5q8 -46 26 -143t25.5 -139.5t20 -115t17.5 -113.5t9.5 -88.5t4.5 -82.5q0 -195 -97.5 -290t-269.5 -95q-134 0 -266 57l20 197q135 -82 248 -82z" />
    <glyph glyph-name="approxequal" unicode="&#x2248;" 
d="M877 649q-52 0 -282.5 61.5t-256.5 61.5q-19 0 -45.5 -29t-74.5 -94q-3 -5 -5 -7t-5 -6t-5 -7l-84 57q26 48 46 80.5t51 73.5t64 62.5t66 21.5q51 0 282 -61.5t257 -61.5q10 0 23.5 9t36 35t33.5 40.5t44 56.5l82 -55q-25 -46 -46 -80t-51.5 -74t-63.5 -62t-66 -22z
M877 213q-52 0 -282.5 62.5t-256.5 62.5q-19 0 -45.5 -29t-74.5 -94q-3 -5 -5 -7t-5 -6t-5 -7l-84 57q27 49 46 80t50.5 72.5t64.5 63t66 21.5q51 0 282 -61t257 -61q10 0 23.5 9t36 35t33.5 40.5t44 56.5l82 -57q-26 -47 -46 -79.5t-51.5 -73.5t-64 -63t-65.5 -22z" />
    <glyph glyph-name="notequal" unicode="&#x2260;" 
d="M297 252l94 197h-250v133q95 2 318 6l123 256h-441v135q389 7 508 8l117 244l18 4l113 -59l-90 -189q102 2 258 2l14 -14l-16 -131h-324l-123 -254q172 2 449 2l14 -14l-16 -129h-514l-121 -252l-18 -4z" />
    <glyph glyph-name="lessequal" unicode="&#x2264;" 
d="M365 889l702 -264v-144l-938 359v88l12 18q148 57 458.5 169.5t465.5 164.5v-143zM1057 176h-922v133q348 10 924 10l14 -12z" />
    <glyph glyph-name="greaterequal" unicode="&#x2265;" 
d="M154 481v144l704 264l-702 248v143q149 -50 457 -161.5t468 -172.5l11 -18v-88zM1069 176h-922v133q348 10 924 10l14 -12z" />
    <glyph glyph-name="lozenge" unicode="&#x25ca;" horiz-adv-x="1282" 
d="M137 662v77l432 674l160 21l451 -697v-75l-443 -662l-157 -20zM649 1309l-368 -611l370 -592h8l379 594l-379 609h-10z" />
    <glyph glyph-name="fi" unicode="&#xfb01;" horiz-adv-x="1196" 
d="M451 0h-256v862l-150 8v95l150 30q-7 107 -7 158q0 191 110 295t306 104q116 0 216.5 -33.5t168.5 -91.5l-119 -157q-133 92 -258 92q-90 0 -131 -50.5t-41 -152.5q0 -91 6 -164h304l251 45l29 -28v-1012h-256v670q0 96 -6 184l-317 8v-862z" />
    <glyph glyph-name="fl" unicode="&#xfb02;" horiz-adv-x="1193" 
d="M451 0h-256v862l-150 8v95l150 30q-7 107 -7 164q0 187 114 290t321 103q90 0 188 -24l199 24l28 -28v-1524h-256v854l-331 8v-862zM440 1174q0 -38 6 -179h336v187q0 102 -4 149q-81 31 -155 31q-183 0 -183 -188z" />
    <glyph glyph-name="a.inferior" horiz-adv-x="880" 
d="M739 74q0 -127 37 -217l-180 -17q-27 50 -43 111h-6q-35 -48 -102.5 -79.5t-147.5 -31.5q-101 0 -161 51.5t-60 141.5q0 88 62 147.5t160.5 87.5t231.5 33v72q0 139 -153 139q-133 0 -256 -68l-10 162q156 62 319 62q154 0 234.5 -68.5t80.5 -198.5q0 -59 -3 -170
t-3 -157zM287 68q0 -45 28 -75t80 -30q75 0 135 53v213q-106 -8 -174.5 -49.5t-68.5 -111.5z" />
    <glyph glyph-name="b.inferior" horiz-adv-x="974" 
d="M879 260q0 -200 -101 -310t-276 -110q-104 0 -193 29l-178 -29v936q0 116 -20 266l208 25l25 -23v-450q90 74 211 74q149 0 236.5 -110t87.5 -298zM471 535q-72 0 -127 -39v-523q52 -18 117 -18q198 0 198 293q0 140 -47.5 213.5t-140.5 73.5z" />
    <glyph glyph-name="c.inferior" horiz-adv-x="835" 
d="M766 608l-47 -162q-98 66 -199 66q-94 0 -149.5 -64.5t-55.5 -181.5q0 -129 62.5 -201.5t177.5 -72.5q92 0 186 51l15 -137q-103 -66 -256 -66q-182 2 -293 111t-111 297q0 190 116 305t302 115q150 0 252 -60z" />
    <glyph glyph-name="d.inferior" horiz-adv-x="987" 
d="M612 1042l209 25l25 -23v-972q0 -120 39 -215l-185 -17q-23 39 -47 109h-2q-84 -109 -231 -109q-146 0 -235 104t-89 283q0 209 119.5 325t310.5 116q46 0 107 -11v119q0 128 -21 266zM315 256q0 -133 52 -213t141 -80q69 0 125 49v535q-39 8 -82 8q-110 0 -173 -77
t-63 -222z" />
    <glyph glyph-name="e.inferior" horiz-adv-x="899" 
d="M813 258l-25 -25h-471q13 -122 78.5 -181.5t171.5 -59.5q117 0 209 55l15 -137q-44 -29 -117 -49.5t-162 -20.5q-190 0 -303 106.5t-113 297.5q0 193 113.5 308.5t282.5 115.5q149 0 236 -89.5t87 -234.5q0 -57 -2 -86zM481 545q-70 0 -116 -63.5t-50 -172.5l289 10
q2 16 2 58q0 74 -32 121t-93 47z" />
    <glyph glyph-name="f.inferior" horiz-adv-x="649" 
d="M379 -143h-213v667l-121 8v76l121 25q-4 94 -4 125q0 147 89 228t249 81q133 0 219 -49l-45 -158q-83 51 -172 51q-131 0 -131 -141q0 -32 6 -137h213l16 -23l-6 -92l-221 6v-667z" />
    <glyph glyph-name="g.inferior" horiz-adv-x="880" 
d="M184 -45q0 85 88 143q-89 32 -140.5 99.5t-51.5 160.5q0 130 94.5 220t249.5 90q125 0 199 -54q28 48 82 73.5t114 25.5l27 -19l-4 -135h-174q86 -70 86 -186q0 -129 -92 -213t-244 -84q-24 0 -60 4q-12 -21 -12 -47q0 -33 20.5 -48t65.5 -18l150 -10q118 -6 191 -57.5
t73 -149.5q0 -125 -120.5 -211t-328.5 -86q-167 0 -268.5 56t-101.5 143q0 53 38 92.5t89 54.5l77 -32q-22 -31 -22 -56q0 -63 59 -108t158 -45q91 0 148 38.5t57 100.5q0 49 -39 78t-109 35l-135 12q-164 15 -164 133zM551 371q0 190 -131 190q-135 0 -135 -190
q0 -92 34 -140.5t101 -48.5q131 0 131 189z" />
    <glyph glyph-name="h.inferior" horiz-adv-x="976" 
d="M344 -143h-213v919q0 132 -20 266l208 25l25 -23v-483q122 107 264 107q107 0 168.5 -64t61.5 -180v-567h-213v526q0 141 -123 141q-81 0 -158 -57v-610z" />
    <glyph glyph-name="i.inferior" horiz-adv-x="489" 
d="M373 963q0 -59 -40.5 -101.5t-101.5 -42.5q-54 0 -87 34t-33 83q0 57 43 99t104 42q51 0 83 -31t32 -83zM135 -143v520q0 149 -20 266l211 25l22 -23v-788h-213z" />
    <glyph glyph-name="j.inferior" horiz-adv-x="491" 
d="M373 963q0 -59 -40.5 -101.5t-101.5 -42.5q-55 0 -87.5 34t-32.5 83q0 57 42.5 99t102.5 42q53 0 85 -31t32 -83zM141 -549l-84 76q82 164 82 360v490q0 132 -20 266l209 25l24 -23v-758q0 -155 -46.5 -251t-164.5 -185z" />
    <glyph glyph-name="k.inferior" horiz-adv-x="913" 
d="M131 776q0 135 -20 266l208 25l25 -23v-737h90q47 70 217 361l172 -17l15 -24l-224 -310q28 -51 64 -112.5t63 -106t75 -122t73 -119.5l-242 -17q-114 187 -205 355h-98v-338h-213v919z" />
    <glyph glyph-name="l.inferior" horiz-adv-x="483" 
d="M342 -143h-213v919q0 135 -20 266l210 25l23 -23v-1187z" />
    <glyph glyph-name="m.inferior" horiz-adv-x="1464" 
d="M352 -143h-213v520q0 112 -33 254l199 37q28 -69 37 -115q124 115 268 115q155 0 207 -125q128 125 279 125q108 0 168.5 -63t60.5 -177v-571h-215v532q0 135 -121 135q-73 0 -153 -57q2 -12 2 -39v-571h-213v532q0 135 -121 135q-75 0 -152 -57v-610z" />
    <glyph glyph-name="n.inferior" horiz-adv-x="985" 
d="M352 -143h-213v520q0 112 -33 254l199 37q28 -69 37 -115q127 115 274 115q107 0 168.5 -64t61.5 -180v-567h-213v526q0 141 -123 141q-81 0 -158 -57v-610z" />
    <glyph glyph-name="o.inferior" horiz-adv-x="968" 
d="M874 260q0 -101 -32.5 -182.5t-88.5 -132.5t-127.5 -78t-152.5 -27q-167 0 -272 107t-105 295q0 198 114 312t286 114q169 0 273.5 -110.5t104.5 -297.5zM315 260q0 -140 42.5 -218.5t127.5 -78.5q83 0 125.5 75.5t42.5 209.5q0 141 -41.5 219t-126.5 78
q-83 0 -126.5 -72t-43.5 -213z" />
    <glyph glyph-name="p.inferior" horiz-adv-x="985" 
d="M139 -522v899q0 106 -33 254l199 37q19 -43 31 -86q97 86 231 86q143 0 232.5 -109.5t89.5 -294.5q0 -197 -99 -310.5t-280 -113.5q-81 0 -158 23v-119q0 -136 19 -264l-207 -27zM479 535q-77 0 -127 -41v-517q52 -22 115 -22q201 0 201 297q0 143 -49.5 213t-139.5 70z
" />
    <glyph glyph-name="q.inferior" horiz-adv-x="987" 
d="M633 -522v444q-88 -82 -213 -82q-146 0 -235 109t-89 291q0 200 115 314t303 114q88 0 168 -23l164 23v-922q0 -145 18 -266l-209 -27zM315 256q0 -134 50 -213.5t141 -79.5q73 0 127 45v541q-40 6 -70 6q-122 0 -185 -78t-63 -221z" />
    <glyph glyph-name="r.inferior" horiz-adv-x="688" 
d="M352 -143h-213v520q0 112 -33 254l199 37q39 -93 45 -168q105 168 225 168q47 0 82 -23l-22 -196q-68 14 -94 14q-46 0 -98 -16.5t-91 -47.5v-542z" />
    <glyph glyph-name="s.inferior" horiz-adv-x="765" 
d="M662 625l-15 -160q-120 63 -227 63q-61 0 -96 -22.5t-35 -61.5q0 -34 29.5 -61.5t74.5 -45t96.5 -41.5t96.5 -49.5t74.5 -70t29.5 -102.5q0 -106 -91.5 -170t-246.5 -64q-165 0 -276 60l16 155q63 -35 137 -55t129 -20q61 0 94 22.5t33 58.5q0 39 -41.5 69.5t-100 54
t-117.5 52t-100.5 78t-41.5 115.5q0 106 93 172t247 66q130 0 238 -43z" />
    <glyph glyph-name="t.inferior" horiz-adv-x="669" 
d="M598 541l-233 4v-406q0 -78 28.5 -112.5t85.5 -34.5q67 0 133 37l17 -129q-99 -60 -217 -60q-126 0 -193 73.5t-67 219.5v416l-117 2v76l121 24l53 201l133 8l27 -24l-4 -185h229l14 -22z" />
    <glyph glyph-name="u.inferior" horiz-adv-x="972" 
d="M135 375q0 121 -16 268l207 25l22 -23v-516q0 -131 119 -131q75 0 149 53v600l213 17v-594q0 -101 29 -215l-176 -19q-30 55 -45 119h-8q-119 -119 -264 -119q-106 0 -168 60t-62 163v312z" />
    <glyph glyph-name="v.inferior" horiz-adv-x="837" 
d="M803 633l-268 -780h-232l-270 798l223 17l113 -404q55 -160 69 -264h2q14 91 74 264l113 404l164 -13z" />
    <glyph glyph-name="w.inferior" horiz-adv-x="1337" 
d="M264 -147l-231 798l219 17l94 -389q48 -150 62 -248h4q22 120 61 243l88 385h254l90 -378q6 -25 22 -78t27 -96t15 -76h2q20 111 61 245l94 392l166 -13l15 -22l-230 -780h-254l-92 358q-50 177 -63 270h-2q-8 -76 -60 -270l-94 -358h-248z" />
    <glyph glyph-name="x.inferior" horiz-adv-x="833" 
d="M567 -143l-178 301l-168 -301h-170l-12 22l242 375l-242 393l217 21l184 -326l172 326l170 -13l11 -22l-244 -377l244 -399h-226z" />
    <glyph glyph-name="y.inferior" horiz-adv-x="829" 
d="M803 633l-250 -715q-27 -79 -53.5 -139.5t-67.5 -123t-89.5 -103t-118 -68.5t-152.5 -31l-33 185q249 9 346 227l-90 2l-262 784l223 17l113 -404q55 -160 69 -264h2q14 91 74 264l113 404l164 -13z" />
    <glyph glyph-name="z.inferior" horiz-adv-x="768" 
d="M57 481l13 170h608l22 -131l-413 -500l168 3q159 0 262 12l-15 -178h-626l-25 133l426 499z" />
    <glyph glyph-name="a.superior" horiz-adv-x="880" 
d="M739 811q0 -127 37 -217l-180 -16q-28 51 -43 110h-6q-35 -48 -102.5 -79t-147.5 -31q-101 0 -161 51t-60 141q0 88 62 147.5t160.5 87.5t231.5 33v72q0 139 -153 139q-134 0 -256 -67l-10 161q156 62 319 62q155 0 235 -68t80 -198q0 -59 -3 -170.5t-3 -157.5zM287 805
q0 -45 28 -75t80 -30q74 0 135 54v213q-106 -8 -174.5 -50t-68.5 -112z" />
    <glyph glyph-name="b.superior" horiz-adv-x="974" 
d="M879 997q0 -200 -101 -309.5t-276 -109.5q-107 0 -193 28l-178 -28v935q0 117 -20 267l208 24l25 -22v-451q90 74 211 74q149 0 236.5 -110t87.5 -298zM471 1272q-72 0 -127 -39v-522q55 -19 117 -19q198 0 198 293q0 140 -47.5 213.5t-140.5 73.5z" />
    <glyph glyph-name="c.superior" horiz-adv-x="835" 
d="M766 1346l-47 -162q-97 65 -199 65q-94 0 -149.5 -64t-55.5 -181q0 -129 63 -202t177 -73q92 0 186 51l15 -137q-102 -65 -256 -65q-183 2 -293.5 110.5t-110.5 296.5q0 190 116 305t302 115q152 0 252 -59z" />
    <glyph glyph-name="d.superior" horiz-adv-x="987" 
d="M612 1780l209 24l25 -22v-973q0 -120 39 -215l-185 -16q-24 41 -47 108h-2q-83 -108 -231 -108q-146 0 -235 104t-89 283q0 209 119.5 324.5t310.5 115.5q52 0 107 -10v118q0 129 -21 267zM315 993q0 -133 52 -213t141 -80q68 0 125 50v534q-39 8 -82 8q-110 0 -173 -77
t-63 -222z" />
    <glyph glyph-name="e.superior" horiz-adv-x="899" 
d="M813 995l-25 -24h-471q13 -122 78.5 -182t171.5 -60q117 0 209 55l15 -137q-107 -69 -279 -69q-191 0 -303.5 106t-112.5 297q0 193 113.5 308.5t282.5 115.5q149 0 236 -89.5t87 -234.5q0 -57 -2 -86zM481 1282q-70 0 -116 -63t-50 -172l289 10q2 16 2 57q0 74 -32 121
t-93 47z" />
    <glyph glyph-name="f.superior" horiz-adv-x="649" 
d="M379 594h-213v668l-121 8v76l121 24q-4 94 -4 125q0 147 89 228t249 81q133 0 219 -49l-45 -158q-84 52 -172 52q-131 0 -131 -142q0 -32 6 -137h213l16 -22l-6 -93l-221 7v-668z" />
    <glyph glyph-name="g.superior" horiz-adv-x="880" 
d="M184 692q0 86 88 144q-89 32 -140.5 99.5t-51.5 160.5q0 130 94.5 219.5t249.5 89.5q127 0 199 -53q28 47 82 72.5t114 25.5l27 -18l-4 -136h-174q86 -70 86 -186q0 -129 -92 -213t-244 -84q-24 0 -60 4q-12 -21 -12 -47q0 -33 20 -47.5t66 -17.5l150 -11
q118 -6 191 -57.5t73 -149.5q0 -125 -120.5 -211t-328.5 -86q-167 0 -268.5 56t-101.5 143q0 53 38 93t89 55l77 -33q-22 -31 -22 -55q0 -63 59 -108.5t158 -45.5q91 0 148 38.5t57 100.5q0 49 -39 78t-109 35l-135 12q-164 15 -164 133zM551 1108q0 190 -131 190
q-135 0 -135 -190q0 -188 135 -188q131 0 131 188z" />
    <glyph glyph-name="h.superior" horiz-adv-x="976" 
d="M344 594h-213v919q0 133 -20 267l208 24l25 -22v-484q122 107 264 107q107 0 168.5 -64t61.5 -180v-567h-213v526q0 142 -123 142q-79 0 -158 -58v-610z" />
    <glyph glyph-name="i.superior" horiz-adv-x="489" 
d="M373 1700q0 -59 -40.5 -101.5t-101.5 -42.5q-54 0 -87 34t-33 83q0 58 43 100t104 42q51 0 83 -31.5t32 -83.5zM135 594v520q0 148 -20 266l211 25l22 -23v-788h-213z" />
    <glyph glyph-name="j.superior" horiz-adv-x="491" 
d="M373 1700q0 -59 -40.5 -101.5t-101.5 -42.5q-55 0 -87.5 34t-32.5 83q0 57 42.5 99.5t102.5 42.5q53 0 85 -31.5t32 -83.5zM141 188l-84 76q82 164 82 361v489q0 132 -20 266l209 25l24 -23v-757q0 -155 -46.5 -251.5t-164.5 -185.5z" />
    <glyph glyph-name="k.superior" horiz-adv-x="913" 
d="M131 1513q0 136 -20 267l208 24l25 -22v-738h90q47 70 217 361l172 -16l15 -25l-224 -309q28 -51 64.5 -113.5t62 -104.5t76 -124t72.5 -119l-242 -16q-119 194 -205 354h-98v-338h-213v919z" />
    <glyph glyph-name="l.superior" horiz-adv-x="483" 
d="M342 594h-213v919q0 136 -20 267l210 24l23 -22v-1188z" />
    <glyph glyph-name="m.superior" horiz-adv-x="1464" 
d="M352 594h-213v520q0 112 -33 254l199 37q28 -69 37 -115q124 115 268 115q155 0 207 -125q128 125 279 125q108 0 168.5 -63t60.5 -177v-571h-215v532q0 136 -121 136q-71 0 -153 -58q2 -12 2 -39v-571h-213v532q0 136 -121 136q-73 0 -152 -58v-610z" />
    <glyph glyph-name="n.superior" horiz-adv-x="985" 
d="M352 594h-213v520q0 112 -33 254l199 37q28 -69 37 -115q127 115 274 115q107 0 168.5 -64t61.5 -180v-567h-213v526q0 142 -123 142q-79 0 -158 -58v-610z" />
    <glyph glyph-name="o.superior" horiz-adv-x="968" 
d="M874 997q0 -134 -56.5 -231t-146 -142.5t-198.5 -45.5q-167 0 -272 106.5t-105 294.5q0 198 114 312t286 114q169 0 273.5 -110.5t104.5 -297.5zM315 997q0 -140 42.5 -218.5t127.5 -78.5q83 0 125.5 75.5t42.5 209.5q0 141 -41.5 219t-126.5 78q-83 0 -126.5 -72
t-43.5 -213z" />
    <glyph glyph-name="p.superior" horiz-adv-x="985" 
d="M139 215v899q0 106 -33 254l199 37q19 -43 31 -86q97 86 231 86q143 0 232.5 -109.5t89.5 -294.5q0 -197 -99 -310t-280 -113q-84 0 -158 22v-119q0 -136 19 -264l-207 -27zM479 1272q-77 0 -127 -41v-516q54 -23 115 -23q201 0 201 297q0 143 -49.5 213t-139.5 70z" />
    <glyph glyph-name="q.superior" horiz-adv-x="987" 
d="M633 215v444q-87 -81 -213 -81q-146 0 -235 108.5t-89 290.5q0 200 115 314t303 114q88 0 168 -23l164 23v-922q0 -145 18 -266l-209 -27zM315 993q0 -134 50 -213.5t141 -79.5q73 0 127 45v541q-40 6 -70 6q-122 0 -185 -78t-63 -221z" />
    <glyph glyph-name="r.superior" horiz-adv-x="688" 
d="M352 594h-213v520q0 112 -33 254l199 37q39 -93 45 -168q105 168 225 168q47 0 82 -23l-22 -196q-68 14 -94 14q-46 0 -98 -16t-91 -47v-543z" />
    <glyph glyph-name="s.superior" horiz-adv-x="765" 
d="M662 1362l-15 -160q-122 64 -227 64q-61 0 -96 -22.5t-35 -61.5q0 -40 41.5 -70.5t100 -54t117.5 -51t100.5 -77.5t41.5 -118q0 -106 -91.5 -169.5t-246.5 -63.5q-167 0 -276 59l16 156q64 -35 137.5 -55.5t128.5 -20.5q61 0 94 22.5t33 59.5q0 39 -41.5 69t-100 54
t-117.5 52t-100.5 77.5t-41.5 115.5q0 106 93 172t247 66q130 0 238 -43z" />
    <glyph glyph-name="t.superior" horiz-adv-x="669" 
d="M598 1278l-233 4v-405q0 -78 28.5 -113t85.5 -35q67 0 133 37l17 -129q-97 -59 -217 -59q-126 0 -193 73t-67 219v416l-117 2v76l121 25l53 200l133 8l27 -24l-4 -184h229l14 -23z" />
    <glyph glyph-name="u.superior" horiz-adv-x="972" 
d="M135 1112q0 121 -16 268l207 25l22 -23v-516q0 -131 119 -131q75 0 149 53v601l213 16v-594q0 -101 29 -215l-176 -18q-31 56 -45 118h-8q-118 -118 -264 -118q-106 0 -168 60t-62 163v311z" />
    <glyph glyph-name="v.superior" horiz-adv-x="837" 
d="M803 1370l-268 -780h-232l-270 799l223 16l113 -404q55 -160 69 -264h2q14 91 74 264l113 404l164 -12z" />
    <glyph glyph-name="w.superior" horiz-adv-x="1337" 
d="M264 590l-231 799l219 16l94 -389q48 -150 62 -248h4q23 122 61 244l88 385h254l90 -379q6 -25 22 -78t27 -96t15 -76h2q21 114 61 246l94 391l166 -12l15 -23l-230 -780h-254l-92 358q-50 176 -63 271h-2q-9 -78 -60 -271l-94 -358h-248z" />
    <glyph glyph-name="x.superior" horiz-adv-x="833" 
d="M567 594l-178 301l-168 -301h-170l-12 22l242 375l-242 393l217 21l184 -326l172 326l170 -12l11 -23l-244 -377l244 -399h-226z" />
    <glyph glyph-name="y.superior" horiz-adv-x="829" 
d="M803 1370l-250 -715q-27 -79 -53.5 -139.5t-67.5 -123t-89.5 -103t-118 -68.5t-152.5 -31l-33 185q249 9 346 227l-90 2l-262 785l223 16l113 -404q55 -160 69 -264h2q14 91 74 264l113 404l164 -12z" />
    <glyph glyph-name="z.superior" horiz-adv-x="768" 
d="M57 1219l13 170h608l22 -132l-413 -499l168 2q159 0 262 12l-15 -178h-626l-25 133l426 500z" />
    <glyph glyph-name="c_h" horiz-adv-x="2164" 
d="M1401 0h-256v1182q0 55 -4 153q-33 8 -70 8q-108 0 -175 -50t-67 -134q0 -106 91 -194l-58 -199q-122 84 -241 84q-116 0 -184 -85.5t-68 -240.5q0 -168 76.5 -264t213.5 -96q106 0 230 69l16 -170q-125 -83 -309 -83q-223 2 -357.5 141t-134.5 379q0 246 141 393
t367 147q54 0 103 -6q-60 88 -60 187q0 144 134.5 237.5t363.5 93.5q111 0 248 -28v-621q153 137 321 137q132 0 206.5 -82t74.5 -231v-727h-256v678q0 184 -152 184q-93 0 -194 -76v-786z" />
    <glyph glyph-name="c_t" horiz-adv-x="1769" 
d="M1155 1020q25 78 25 151q0 92 -41 145.5t-115 53.5q-79 0 -129.5 -53.5t-50.5 -142.5q0 -108 76 -209l-58 -199q-122 84 -237 84q-120 0 -188 -86t-68 -244q0 -165 76 -260.5t212 -95.5q108 0 232 69l16 -170q-125 -83 -303 -83q-227 0 -362.5 139.5t-135.5 380.5
q0 247 141.5 393.5t372.5 146.5q58 0 123 -10q-36 76 -36 166q0 150 103.5 243t268.5 93q159 0 257 -88.5t98 -245.5q0 -77 -27 -178h278l21 -29l-12 -110l-287 6v-529q0 -194 143 -194q79 0 160 49l21 -160q-114 -73 -263 -73q-84 0 -147 29.5t-99 82t-53.5 117
t-17.5 141.5v541l-129 2v96z" />
    <glyph glyph-name="s_h" horiz-adv-x="2072" 
d="M797 983l-19 -197q-151 82 -276 82q-75 0 -118.5 -30.5t-43.5 -81.5q0 -37 27 -67t70 -52.5t95 -44.5t104.5 -49.5t95.5 -61t70 -85.5t27 -117q0 -137 -111 -218t-298 -81q-90 0 -181.5 19.5t-154.5 53.5l18 195q78 -45 167.5 -70.5t156.5 -25.5q74 0 115 30t41 78
q0 37 -27 67t-70 52.5t-95 44.5t-104 49.5t-95 60.5t-70 85t-27 116q0 137 112.5 221t297.5 84q52 0 117 -10q-60 97 -60 189q0 145 134.5 239t365.5 94q109 0 246 -28v-621q153 137 323 137q131 0 205 -81.5t74 -231.5v-727h-256v678q0 184 -152 184q-93 0 -194 -76v-786
h-256v1182q0 104 -4 153q-31 8 -70 8q-107 0 -174.5 -50.5t-67.5 -135.5q0 -93 62 -174z" />
    <glyph glyph-name="s_t" horiz-adv-x="1673" 
d="M797 983l-19 -197q-151 82 -276 82q-75 0 -118.5 -30.5t-43.5 -81.5q0 -37 27 -67t70 -52.5t95 -44.5t104.5 -49.5t95.5 -61t70 -85.5t27 -117q0 -137 -111 -218t-298 -81q-90 0 -181.5 19.5t-154.5 53.5l18 195q78 -45 167.5 -70.5t156.5 -25.5q74 0 115 30t41 78
q0 37 -27 67t-70 52.5t-95 44.5t-104 49.5t-95 60.5t-70 85t-27 116q0 137 112.5 221t297.5 84q75 0 141 -14q-37 81 -37 170q0 150 104 243t269 93q158 0 256 -89.5t98 -244.5q0 -80 -26 -178h278l21 -29l-13 -110l-286 6v-529q0 -194 143 -194q79 0 160 49l20 -160
q-114 -73 -262 -73q-84 0 -147 29.5t-99 82t-53.5 117t-17.5 141.5v541l-129 2v96l135 31q24 75 24 151q0 92 -41 145.5t-116 53.5q-78 0 -128 -54.5t-50 -146.5q0 -95 49 -186z" />
    <glyph glyph-name="a.sc" horiz-adv-x="1120" 
d="M268 0h-241l311 934q30 87 53 172l299 14l39 -35l365 -1085h-256l-80 240h-410zM449 535l-41 -119h290l-39 116q-79 258 -102 369h-6q-36 -157 -102 -366z" />
    <glyph glyph-name="aacute.sc" horiz-adv-x="1120" 
d="M756 1628l16 -45q-126 -191 -326 -332l-94 23q123 219 174 377zM268 0h-241l311 934q30 87 53 172l299 14l39 -35l365 -1085h-256l-80 240h-410zM449 535l-41 -119h290l-39 116q-79 258 -102 369h-6q-36 -157 -102 -366z" />
    <glyph glyph-name="abreve.sc" horiz-adv-x="1120" 
d="M745 1618l105 10q-14 -155 -94 -249.5t-207 -94.5q-115 0 -193 87t-90 235l105 14q19 -77 69.5 -120.5t120.5 -43.5q66 0 116 45t68 117zM268 0h-241l311 934q30 87 53 172l299 14l39 -35l365 -1085h-256l-80 240h-410zM449 535l-41 -119h290l-39 116q-79 258 -102 369
h-6q-36 -157 -102 -366z" />
    <glyph glyph-name="acaron.sc" horiz-adv-x="1120" 
d="M807 1661l80 -59q-108 -140 -223 -328l-181 -17q-97 167 -231 345l80 59q92 -66 241 -215q145 145 234 215zM268 0h-241l311 934q30 87 53 172l299 14l39 -35l365 -1085h-256l-80 240h-410zM449 535l-41 -119h290l-39 116q-79 258 -102 369h-6q-36 -157 -102 -366z" />
    <glyph glyph-name="acircumflex.sc" horiz-adv-x="1120" 
d="M332 1235l-80 59q108 140 223 328l180 16q98 -166 232 -344l-80 -59q-95 68 -242 215q-149 -149 -233 -215zM268 0h-241l311 934q30 87 53 172l299 14l39 -35l365 -1085h-256l-80 240h-410zM449 535l-41 -119h290l-39 116q-79 258 -102 369h-6q-36 -157 -102 -366z" />
    <glyph glyph-name="adieresis.sc" horiz-adv-x="1120" 
d="M483 1460q0 -69 -44.5 -117.5t-112.5 -48.5q-60 0 -98 40t-38 98q0 66 48.5 114.5t115.5 48.5q57 0 93 -37t36 -98zM932 1460q0 -69 -45 -117.5t-113 -48.5q-60 0 -97.5 40t-37.5 98q0 66 48 114.5t114 48.5q59 0 95 -37t36 -98zM268 0h-241l311 934q30 87 53 172l299 14
l39 -35l365 -1085h-256l-80 240h-410zM449 535l-41 -119h290l-39 116q-79 258 -102 369h-6q-36 -157 -102 -366z" />
    <glyph glyph-name="adotbelow.sc" horiz-adv-x="1120" 
d="M268 0h-241l311 934q30 87 53 172l299 14l39 -35l365 -1085h-256l-80 240h-410zM449 535l-41 -119h290l-39 116q-79 258 -102 369h-6q-36 -157 -102 -366zM721 -326q0 -72 -49 -124t-123 -52q-66 0 -107 42.5t-41 105.5q0 70 53.5 122t125.5 52q63 0 102 -40t39 -106z
" />
    <glyph glyph-name="agrave.sc" horiz-adv-x="1120" 
d="M676 1253q-200 144 -324 332l15 45l231 23q53 -165 174 -377zM268 0h-241l311 934q30 87 53 172l299 14l39 -35l365 -1085h-256l-80 240h-410zM449 535l-41 -119h290l-39 116q-79 258 -102 369h-6q-36 -157 -102 -366z" />
    <glyph glyph-name="amacron.sc" horiz-adv-x="1120" 
d="M270 1370v148h584v-148h-584zM268 0h-241l311 934q30 87 53 172l299 14l39 -35l365 -1085h-256l-80 240h-410zM449 535l-41 -119h290l-39 116q-79 258 -102 369h-6q-36 -157 -102 -366z" />
    <glyph glyph-name="aogonek.sc" horiz-adv-x="1120" 
d="M268 0h-241l311 934q30 87 53 172l299 14l39 -35l365 -1085q-112 -58 -172 -123.5t-60 -128.5q0 -44 24.5 -69t74.5 -25q49 0 110 27l39 -93q-48 -40 -112 -65t-128 -25q-98 0 -159.5 52.5t-61.5 140.5q0 86 69.5 167t196.5 142h-77l-80 240h-410zM449 535l-41 -119h290
l-39 116q-79 258 -102 369h-6q-36 -157 -102 -366z" />
    <glyph glyph-name="aring.sc" horiz-adv-x="1120" 
d="M803 1466q0 -90 -69 -153.5t-167 -63.5q-88 0 -146.5 53t-58.5 130q0 88 72 151.5t170 63.5q87 0 143 -51.5t56 -129.5zM477 1440q0 -42 28 -70.5t73 -28.5t77.5 34.5t32.5 80.5q0 45 -26 72.5t-68 27.5q-47 0 -82 -34.5t-35 -81.5zM268 0h-241l311 934q30 87 53 172
l299 14l39 -35l365 -1085h-256l-80 240h-410zM449 535l-41 -119h290l-39 116q-79 258 -102 369h-6q-36 -157 -102 -366z" />
    <glyph glyph-name="aringacute.sc" horiz-adv-x="1120" 
d="M778 2171l15 -43q-126 -192 -324 -334l-96 25q119 205 174 374zM803 1466q0 -90 -69 -153.5t-167 -63.5q-88 0 -146.5 53t-58.5 130q0 88 72 151.5t170 63.5q87 0 143 -51.5t56 -129.5zM477 1440q0 -42 28 -70.5t73 -28.5t77.5 34.5t32.5 80.5q0 45 -26 72.5t-68 27.5
q-47 0 -82 -34.5t-35 -81.5zM268 0h-241l311 934q30 87 53 172l299 14l39 -35l365 -1085h-256l-80 240h-410zM449 535l-41 -119h290l-39 116q-79 258 -102 369h-6q-36 -157 -102 -366z" />
    <glyph glyph-name="atilde.sc" horiz-adv-x="1120" 
d="M414 1602q41 0 86 -18.5t76.5 -40t70.5 -40t70 -18.5q38 0 62 24.5t52 75.5l74 -12q-5 -115 -56 -201t-142 -86q-49 0 -108 29t-113 58.5t-89 29.5q-61 0 -114 -98l-72 10q2 53 14.5 101.5t36 91.5t62.5 68.5t90 25.5zM268 0h-241l311 934q30 87 53 172l299 14l39 -35
l365 -1085h-256l-80 240h-410zM449 535l-41 -119h290l-39 116q-79 258 -102 369h-6q-36 -157 -102 -366z" />
    <glyph glyph-name="ae.sc" horiz-adv-x="1435" 
d="M268 0h-241l370 934q38 95 54 172h806l29 -29l-4 -162l-438 11l41 -299l370 6l-6 -174l-342 8l39 -289l432 12v-190h-663q-4 43 -12 123t-11 117h-325q-17 -41 -52 -126.5t-47 -113.5zM610 901q-49 -174 -172 -485h238q-31 327 -37 485h-29z" />
    <glyph glyph-name="aeacute.sc" horiz-adv-x="1435" 
d="M977 1628l14 -45q-128 -195 -323 -332l-95 23q125 223 175 377zM268 0h-241l370 934q38 95 54 172h806l29 -29l-4 -162l-438 11l41 -299l370 6l-6 -174l-342 8l39 -289l432 12v-190h-663q-4 43 -12 123t-11 117h-325q-17 -41 -52 -126.5t-47 -113.5zM610 901
q-49 -174 -172 -485h238q-31 327 -37 485h-29z" />
    <glyph glyph-name="b.sc" horiz-adv-x="1081" 
d="M553 0h-424v829q0 181 -14 277h446q184 0 294 -82.5t110 -210.5q0 -165 -189 -238q112 -30 174 -99t62 -173q0 -138 -128.5 -220.5t-330.5 -82.5zM520 930h-135v-291h133q93 0 142 39t49 104q0 69 -48.5 108.5t-140.5 39.5zM532 475h-147v-299h150q103 0 159 39.5
t56 108.5q0 70 -54.5 110.5t-163.5 40.5z" />
    <glyph glyph-name="c.sc" horiz-adv-x="1013" 
d="M940 254l29 -199q-133 -71 -334 -71q-258 0 -406.5 147.5t-148.5 407.5t159.5 421.5t409.5 161.5q188 0 312 -67l-50 -211q-133 76 -258 76q-139 0 -224 -101t-85 -272q0 -167 86 -264t240 -97q144 0 270 68z" />
    <glyph glyph-name="cacute.sc" horiz-adv-x="1013" 
d="M778 1628l17 -45q-126 -191 -326 -332l-94 23q118 205 174 377zM940 254l29 -199q-133 -71 -334 -71q-258 0 -406.5 147.5t-148.5 407.5t159.5 421.5t409.5 161.5q188 0 312 -67l-50 -211q-133 76 -258 76q-139 0 -224 -101t-85 -272q0 -167 86 -264t240 -97
q144 0 270 68z" />
    <glyph glyph-name="ccaron.sc" horiz-adv-x="1013" 
d="M829 1661l82 -59q-108 -136 -225 -328l-180 -17q-93 161 -232 345l80 59q95 -68 242 -215q149 149 233 215zM940 254l29 -199q-133 -71 -334 -71q-258 0 -406.5 147.5t-148.5 407.5t159.5 421.5t409.5 161.5q188 0 312 -67l-50 -211q-133 76 -258 76q-139 0 -224 -101
t-85 -272q0 -167 86 -264t240 -97q144 0 270 68z" />
    <glyph glyph-name="ccedilla.sc" horiz-adv-x="1013" 
d="M842 -291q0 -57 -34 -99t-93 -66t-123.5 -36.5t-138.5 -15.5v92q202 26 202 115q0 75 -145 78l-29 45l51 168q-213 29 -332.5 173t-119.5 376q0 260 159.5 421.5t409.5 161.5q188 0 312 -67l-50 -211q-133 76 -258 76q-139 0 -224 -101t-85 -272q0 -167 86 -264t240 -97
q144 0 270 68l29 -199q-121 -65 -301 -71l-35 -109q42 -6 77 -17t66 -30t48.5 -49.5t17.5 -69.5z" />
    <glyph glyph-name="ccircumflex.sc" horiz-adv-x="1013" 
d="M354 1235l-80 59q112 146 224 328l180 16q105 -178 233 -344l-82 -59q-92 66 -241 215q-152 -152 -234 -215zM940 254l29 -199q-133 -71 -334 -71q-258 0 -406.5 147.5t-148.5 407.5t159.5 421.5t409.5 161.5q188 0 312 -67l-50 -211q-133 76 -258 76q-139 0 -224 -101
t-85 -272q0 -167 86 -264t240 -97q144 0 270 68z" />
    <glyph glyph-name="cdotaccent.sc" horiz-adv-x="1013" 
d="M743 1460q0 -72 -49 -124t-123 -52q-65 0 -106 42.5t-41 103.5q0 71 53 123.5t125 52.5q63 0 102 -40.5t39 -105.5zM940 254l29 -199q-133 -71 -334 -71q-258 0 -406.5 147.5t-148.5 407.5t159.5 421.5t409.5 161.5q188 0 312 -67l-50 -211q-133 76 -258 76
q-139 0 -224 -101t-85 -272q0 -167 86 -264t240 -97q144 0 270 68z" />
    <glyph glyph-name="d.sc" horiz-adv-x="1189" 
d="M1110 561q0 -176 -83.5 -305t-221 -192.5t-309.5 -63.5h-367v829q0 181 -14 277h407q269 0 428.5 -146.5t159.5 -398.5zM506 928h-121v-752h129q166 0 249 100.5t83 272.5q0 168 -86.5 273.5t-253.5 105.5z" />
    <glyph glyph-name="eth.sc" horiz-adv-x="1189" 
d="M1110 561q0 -176 -83.5 -305t-221 -192.5t-309.5 -63.5h-367v477h-125v137h125v215q0 181 -14 277h407q269 0 428.5 -146.5t159.5 -398.5zM657 477h-272v-301h129q166 0 249 100.5t83 272.5q0 168 -86.5 273.5t-253.5 105.5h-121v-314h272v-137z" />
    <glyph glyph-name="dcaron.sc" horiz-adv-x="1189" 
d="M834 1661l81 -59q-114 -144 -223 -328l-180 -17q-103 172 -233 345l81 59q86 -63 242 -215q135 139 232 215zM1110 561q0 -176 -83.5 -305t-221 -192.5t-309.5 -63.5h-367v829q0 181 -14 277h407q269 0 428.5 -146.5t159.5 -398.5zM506 928h-121v-752h129
q166 0 249 100.5t83 272.5q0 168 -86.5 273.5t-253.5 105.5z" />
    <glyph glyph-name="dcroat.sc" horiz-adv-x="1189" 
d="M1110 561q0 -176 -83.5 -305t-221 -192.5t-309.5 -63.5h-367v477h-125v137h125v215q0 181 -14 277h407q269 0 428.5 -146.5t159.5 -398.5zM657 477h-272v-301h129q166 0 249 100.5t83 272.5q0 168 -86.5 273.5t-253.5 105.5h-121v-314h272v-137z" />
    <glyph glyph-name="ddotbelow.sc" horiz-adv-x="1189" 
d="M1110 561q0 -176 -83.5 -305t-221 -192.5t-309.5 -63.5h-367v829q0 181 -14 277h407q269 0 428.5 -146.5t159.5 -398.5zM506 928h-121v-752h129q166 0 249 100.5t83 272.5q0 168 -86.5 273.5t-253.5 105.5zM754 -326q0 -72 -50 -124t-122 -52q-66 0 -107 42.5t-41 105.5
q0 71 52 122.5t124 51.5q64 0 104 -40t40 -106z" />
    <glyph glyph-name="e.sc" horiz-adv-x="942" 
d="M885 190v-190h-756v829q0 181 -14 277h731l28 -29l-6 -162l-483 15v-303l399 6l-6 -174l-393 10v-293z" />
    <glyph glyph-name="eacute.sc" horiz-adv-x="942" 
d="M694 1628l15 -45q-127 -194 -324 -332l-96 23q118 205 174 377zM885 190v-190h-756v829q0 181 -14 277h731l28 -29l-6 -162l-483 15v-303l399 6l-6 -174l-393 10v-293z" />
    <glyph glyph-name="ebreve.sc" horiz-adv-x="942" 
d="M684 1618l102 10q-12 -154 -92.5 -249t-206.5 -95q-117 0 -194.5 87t-87.5 235l104 14q17 -76 68.5 -120t120.5 -44q67 0 117 45t69 117zM885 190v-190h-756v829q0 181 -14 277h731l28 -29l-6 -162l-483 15v-303l399 6l-6 -174l-393 10v-293z" />
    <glyph glyph-name="ecaron.sc" horiz-adv-x="942" 
d="M743 1661l82 -59q-114 -144 -223 -328l-180 -17q-99 166 -234 345l82 59q86 -63 242 -215q138 142 231 215zM885 190v-190h-756v829q0 181 -14 277h731l28 -29l-6 -162l-483 15v-303l399 6l-6 -174l-393 10v-293z" />
    <glyph glyph-name="ecircumflex.sc" horiz-adv-x="942" 
d="M270 1235l-82 59q127 165 224 328l180 16q120 -197 233 -344l-82 -59q-97 71 -241 215q-153 -153 -232 -215zM885 190v-190h-756v829q0 181 -14 277h731l28 -29l-6 -162l-483 15v-303l399 6l-6 -174l-393 10v-293z" />
    <glyph glyph-name="edieresis.sc" horiz-adv-x="942" 
d="M420 1460q0 -69 -44.5 -117.5t-111.5 -48.5q-62 0 -99.5 39.5t-37.5 98.5q0 66 49 114.5t115 48.5q57 0 93 -37t36 -98zM868 1460q0 -69 -44.5 -117.5t-110.5 -48.5q-62 0 -100 40t-38 98q0 66 49 114.5t115 48.5q57 0 93 -37t36 -98zM885 190v-190h-756v829
q0 181 -14 277h731l28 -29l-6 -162l-483 15v-303l399 6l-6 -174l-393 10v-293z" />
    <glyph glyph-name="edotaccent.sc" horiz-adv-x="942" 
d="M659 1460q0 -72 -50 -124t-122 -52q-66 0 -106.5 42t-40.5 104q0 71 52 123.5t124 52.5q63 0 103 -41t40 -105zM885 190v-190h-756v829q0 181 -14 277h731l28 -29l-6 -162l-483 15v-303l399 6l-6 -174l-393 10v-293z" />
    <glyph glyph-name="edotbelow.sc" horiz-adv-x="942" 
d="M885 190v-190h-756v829q0 181 -14 277h731l28 -29l-6 -162l-483 15v-303l399 6l-6 -174l-393 10v-293zM680 -326q0 -72 -49 -124t-121 -52q-66 0 -108 42.5t-42 105.5q0 70 53.5 122t125.5 52q63 0 102 -40t39 -106z" />
    <glyph glyph-name="egrave.sc" horiz-adv-x="942" 
d="M614 1253q-202 145 -325 332l14 45l232 23q53 -165 174 -377zM885 190v-190h-756v829q0 181 -14 277h731l28 -29l-6 -162l-483 15v-303l399 6l-6 -174l-393 10v-293z" />
    <glyph glyph-name="emacron.sc" horiz-adv-x="942" 
d="M207 1370v148h584v-148h-584zM885 190v-190h-756v829q0 181 -14 277h731l28 -29l-6 -162l-483 15v-303l399 6l-6 -174l-393 10v-293z" />
    <glyph glyph-name="eogonek.sc" horiz-adv-x="942" 
d="M885 0q-112 -58 -172 -123.5t-60 -128.5q0 -44 24.5 -69t74.5 -25q49 0 112 27l39 -93q-48 -40 -112.5 -65t-128.5 -25q-98 0 -159 52.5t-61 140.5q0 86 69.5 166.5t197.5 142.5h-580v829q0 181 -14 277h731l28 -29l-6 -162l-483 15v-303l399 6l-6 -174l-393 10v-293
l500 14v-190z" />
    <glyph glyph-name="etilde.sc" horiz-adv-x="942" 
d="M352 1602q41 0 85.5 -18.5t76 -40t70 -40t69.5 -18.5q38 0 64 25t53 75l74 -12q-3 -72 -25 -135.5t-68 -107.5t-108 -44q-39 0 -85 18.5t-80.5 40t-75 40t-68.5 18.5q-63 0 -113 -98l-74 10q3 53 15.5 101.5t36 91.5t63 68.5t90.5 25.5zM885 190v-190h-756v829
q0 181 -14 277h731l28 -29l-6 -162l-483 15v-303l399 6l-6 -174l-393 10v-293z" />
    <glyph glyph-name="schwa.sc" horiz-adv-x="1124" 
d="M84 506l31 31h663q-4 203 -101.5 302t-266.5 99q-149 0 -283 -74l-14 170q58 36 152 62t208 26q261 0 416 -146.5t155 -410.5q0 -261 -152 -423t-388 -162q-196 0 -310 115t-114 315q0 30 4 96zM332 371q0 -114 46.5 -176t137.5 -62q105 0 175 82t85 227l-440 -14
q-4 -36 -4 -57z" />
    <glyph glyph-name="f.sc" horiz-adv-x="878" 
d="M385 0h-256v829q0 181 -14 277h704l29 -29l-4 -162l-459 15v-332l375 6l-6 -174l-369 10v-440z" />
    <glyph glyph-name="g.sc" horiz-adv-x="1120" 
d="M1006 518l28 -26l-4 -441q-167 -67 -375 -67q-274 0 -424.5 144t-150.5 396q0 269 165 433.5t443 164.5q183 0 320 -65l-43 -209q-125 76 -267 76q-161 0 -257.5 -99t-96.5 -282q0 -171 86 -270t252 -99q54 0 109 8q0 158 -23 320z" />
    <glyph glyph-name="gacute.sc" horiz-adv-x="1120" 
d="M778 1628l15 -45q-127 -194 -324 -332l-94 23q123 219 174 377zM1006 518l28 -26l-4 -441q-167 -67 -375 -67q-274 0 -424.5 144t-150.5 396q0 269 165 433.5t443 164.5q183 0 320 -65l-43 -209q-125 76 -267 76q-161 0 -257.5 -99t-96.5 -282q0 -171 86 -270t252 -99
q54 0 109 8q0 158 -23 320z" />
    <glyph glyph-name="gbreve.sc" horiz-adv-x="1120" 
d="M768 1618l104 10q-14 -155 -94 -249.5t-207 -94.5q-116 0 -193 87t-89 235l104 14q19 -77 70 -120.5t121 -43.5q66 0 116 45t68 117zM1006 518l28 -26l-4 -441q-167 -67 -375 -67q-274 0 -424.5 144t-150.5 396q0 269 165 433.5t443 164.5q183 0 320 -65l-43 -209
q-125 76 -267 76q-161 0 -257.5 -99t-96.5 -282q0 -171 86 -270t252 -99q54 0 109 8q0 158 -23 320z" />
    </font>
</defs>
</svg>
